VERSION	0.00.00	1.03.00
FES_MODE	0
BPM_DEF	146.000	146.000	146.000	146.000
MET_DEF	4	4
RESOLUTION	384
CLK_DEF	384
COMPATIBLE_CODE	MA2

BPM	0	0	146.000
MET	0	0	4	4

TAP	1	0	4
TAP	1	0	5
TAP	1	96	2
TAP	1	144	4
TAP	1	240	4
TAP	1	288	2
TAP	2	0	2
TAP	2	0	3
TAP	2	96	5
TAP	2	144	3
TAP	2	240	3
TAP	2	288	5
TAP	3	0	4
TAP	3	0	5
TAP	3	96	2
TAP	3	144	4
TAP	3	240	4
TAP	3	288	2
TAP	4	0	2
TAP	4	0	3
TAP	4	96	5
TAP	4	144	3
TAP	4	240	3
TAP	4	288	5
STR	5	0	7
SCL	5	0	7	96	48	4
STR	5	96	1
SCR	5	96	1	96	48	4
TAP	5	144	1
TAP	5	240	6
TAP	5	288	7
TAP	5	336	0
HLD	6	0	1	240
TAP	6	48	2
TAP	6	96	3
TAP	6	144	4
HLD	6	192	4	48
TAP	6	288	6
TAP	6	288	7
STR	7	0	0
SCR	7	0	0	96	48	3
STR	7	96	6
SCL	7	96	6	96	48	3
TAP	7	144	6
TAP	7	240	1
TAP	7	288	0
TAP	7	336	7
HLD	8	0	6	288
TAP	8	48	5
TAP	8	96	4
TAP	8	144	3
HLD	8	192	3	96
STR	9	0	7
SCL	9	0	7	96	48	4
STR	9	96	1
SCR	9	96	1	96	48	4
TAP	9	144	1
TAP	9	240	6
TAP	9	288	7
TAP	9	336	0
HLD	10	0	1	192
TAP	10	48	2
TAP	10	96	3
TAP	10	144	4
TAP	10	192	4
TAP	10	288	5
TAP	10	336	4
STR	11	0	3
SV_	11	0	3	96	48	4
STR	11	96	5
SUR	11	96	5	96	48	2
STR	11	192	1
SCL	11	192	1	96	48	6
STR	11	288	4
SF_	11	288	4	96	48	0
BRK	12	0	4
STR	12	96	0
SF_	12	96	0	96	48	4
BRK	12	192	0
TAP	12	288	1
TAP	12	288	6
TAP	12	336	0
TAP	12	360	7
STR	13	0	0
SI_	13	0	0	96	48	3
STR	13	96	4
SI_	13	96	4	96	48	7
STR	13	192	1
SI_	13	192	1	96	48	6
STR	13	288	5
SI_	13	288	5	96	48	2
TAP	14	0	1
TAP	14	48	1
TAP	14	96	0
TAP	14	96	2
TAP	14	144	1
TAP	14	168	0
TAP	14	192	2
TAP	14	216	7
TAP	14	240	3
TAP	14	264	6
TAP	14	288	4
STR	15	0	7
SI_	15	0	7	96	48	4
STR	15	96	3
SI_	15	96	3	96	48	0
STR	15	192	6
SI_	15	192	6	96	48	1
STR	15	288	2
SI_	15	288	2	96	48	5
TAP	16	0	6
TAP	16	48	6
TAP	16	96	5
TAP	16	96	7
TAP	16	144	6
TAP	16	168	7
TAP	16	192	5
TAP	16	216	0
TAP	16	240	4
TAP	16	264	1
TAP	16	288	3
STR	17	0	1
SI_	17	0	1	96	48	4
STR	17	96	5
SI_	17	96	5	96	48	0
STR	17	192	2
SI_	17	192	2	96	48	7
STR	17	288	6
SI_	17	288	6	96	48	3
TAP	18	0	2
TAP	18	48	2
TAP	18	96	1
TAP	18	96	3
TAP	18	144	2
TAP	18	168	3
TAP	18	192	1
TAP	18	216	4
TAP	18	240	0
TAP	18	264	5
TAP	18	288	7
STR	19	0	6
SI_	19	0	6	96	48	3
STR	19	96	2
SI_	19	96	2	96	48	7
STR	19	192	4
SCL	19	192	4	96	48	1
SCR	19	192	4	96	48	7
TAP	19	288	4
BRK	20	0	2
BRK	20	0	6
TAP	20	48	5
TAP	20	72	4
TAP	20	96	5
TAP	20	144	0
TAP	20	144	7
TAP	20	192	2
TAP	20	216	3
TAP	20	240	2
TAP	20	264	3
TAP	20	288	1
TAP	20	288	4
HLD	21	0	2	192
TAP	21	0	3
TAP	21	96	4
TAP	21	144	5
HLD	21	192	6	336
TAP	21	288	4
TAP	21	336	3
TAP	22	0	2
TAP	22	48	1
TAP	22	96	0
STR	22	144	7
SI_	22	144	7	96	48	2
SI_	22	144	7	96	48	4
TAP	22	240	7
TAP	23	0	4
HLD	23	0	5	192
TAP	23	96	3
TAP	23	144	2
HLD	23	192	1	336
TAP	23	288	2
TAP	23	336	3
TAP	24	0	4
TAP	24	48	5
TAP	24	96	6
TAP	24	144	7
HLD	24	192	7	96
TAP	24	240	1
TAP	24	256	2
TAP	24	272	3
TAP	24	288	4
HLD	25	0	2	192
TAP	25	0	3
TAP	25	96	4
TAP	25	144	5
HLD	25	192	6	336
TAP	25	288	4
TAP	25	336	3
TAP	26	0	2
TAP	26	48	1
TAP	26	96	0
STR	26	144	7
SI_	26	144	7	96	48	2
SI_	26	144	7	96	48	4
TAP	26	240	7
TAP	27	0	3
STR	27	0	4
SUL	27	0	4	96	96	7
STR	27	96	7
SUL	27	96	7	96	96	2
STR	27	192	2
SUL	27	192	2	96	96	5
STR	27	288	5
SUL	27	288	5	96	96	0
STR	28	0	0
SCL	28	0	0	96	96	4
TAP	28	96	4
TAP	28	192	1
TAP	28	240	6
TAP	28	264	1
TAP	28	288	6
TAP	28	312	0
TAP	28	336	6
TAP	28	360	7
HLD	29	0	6	192
TAP	29	96	0
TAP	29	144	1
HLD	29	192	2	336
TAP	29	288	0
TAP	29	336	7
TAP	30	0	6
TAP	30	48	5
TAP	30	96	4
STR	30	144	3
SI_	30	144	3	96	48	0
SI_	30	144	3	96	48	6
TAP	30	240	3
TAP	31	0	0
HLD	31	0	1	192
TAP	31	96	7
TAP	31	144	6
HLD	31	192	5	336
TAP	31	288	6
TAP	31	336	7
TAP	32	0	0
TAP	32	48	1
TAP	32	96	2
TAP	32	144	3
HLD	32	192	3	96
TAP	32	240	5
TAP	32	256	6
TAP	32	272	7
TAP	32	288	0
STR	33	0	4
SCL	33	0	4	96	48	2
STR	33	0	7
SCL	33	0	7	96	48	4
STR	33	192	0
SCR	33	192	0	96	48	3
STR	33	192	3
SCR	33	192	3	96	48	5
HLD	34	0	2	144
TAP	34	0	6
TAP	34	48	5
TAP	34	96	4
STR	34	144	3
SI_	34	144	3	96	48	0
SI_	34	144	3	96	48	6
TAP	34	240	3
TAP	35	0	1
STR	35	0	7
SCL	35	0	7	96	96	3
STR	35	96	3
SCL	35	96	3	96	96	7
STR	35	192	7
SLL	35	192	7	96	96	3
STR	35	288	3
SLL	35	288	3	96	96	7
STR	36	0	7
SUL	36	0	7	96	96	3
STR	36	96	3
SUL	36	96	3	96	96	7
TAP	36	192	7
TAP	36	288	3
TAP	36	336	5
TAP	36	360	3
HLD	37	0	5	96
TAP	37	48	0
HLD	37	96	3	96
TAP	37	144	0
HLD	37	192	5	96
TAP	37	240	0
HLD	37	288	3	96
TAP	37	336	0
HLD	38	0	6	96
TAP	38	48	0
HLD	38	96	4	96
TAP	38	144	0
TAP	38	192	5
STR	38	288	3
SUL	38	288	3	96	48	7
STR	38	288	7
SUL	38	288	7	96	48	3
TAP	39	0	3
TAP	39	0	7
STR	39	96	3
SCR	39	96	3	96	48	6
STR	39	96	7
SCR	39	96	7	96	48	2
TAP	39	192	3
TAP	39	192	7
TAP	39	288	0
TAP	39	288	4
TAP	40	0	1
TAP	40	0	4
TAP	40	48	4
TAP	40	48	7
TAP	40	96	2
TAP	40	96	4
TAP	40	144	4
TAP	40	144	6
STR	40	192	1
SV_	40	192	1	96	48	4
STR	40	192	7
SV_	40	192	7	96	48	4
TAP	40	288	1
TAP	40	288	7
HLD	41	0	2	96
TAP	41	48	7
HLD	41	96	4	96
TAP	41	144	7
HLD	41	192	2	96
TAP	41	240	7
HLD	41	288	4	96
TAP	41	336	7
HLD	42	0	1	96
TAP	42	48	7
TAP	42	96	4
TAP	42	144	2
TAP	42	144	6
STR	42	192	1
SI_	42	192	1	96	48	4
STR	42	192	5
SI_	42	192	5	96	48	0
BRK	42	288	1
BRK	42	288	5
TAP	43	0	2
STR	43	0	6
SCL	43	0	6	96	48	3
STR	43	96	2
SCL	43	96	2	96	48	7
TAP	43	144	2
TAP	43	240	4
TAP	43	288	5
TAP	43	336	6
TAP	44	0	2
TAP	44	0	7
TAP	44	48	1
TAP	44	48	6
STR	44	96	0
SCL	44	96	0	96	48	5
SCR	44	96	0	96	48	3
TAP	44	96	5
TAP	44	144	0
STR	44	192	0
SF_	44	192	0	96	48	4
TAP	44	288	0
STR	45	0	1
SCR	45	0	1	96	48	4
TAP	45	0	7
STR	45	96	5
SCR	45	96	5	96	48	0
TAP	45	144	5
TAP	45	240	3
TAP	45	288	2
TAP	45	336	1
TAP	46	0	0
TAP	46	0	5
TAP	46	48	1
TAP	46	48	6
TAP	46	96	2
TAP	46	96	7
TAP	46	144	1
TAP	46	144	6
TAP	46	192	0
HLD	46	192	5	96
TAP	46	240	0
TAP	46	256	1
TAP	46	272	2
TAP	46	288	3
TAP	47	0	0
STR	47	0	6
SCL	47	0	6	96	48	3
STR	47	96	2
SCL	47	96	2	96	48	7
TAP	47	144	2
TAP	47	240	4
TAP	47	288	5
TAP	47	336	6
TAP	48	0	2
TAP	48	0	7
TAP	48	48	1
TAP	48	48	6
STR	48	96	0
SF_	48	96	0	96	48	4
TAP	48	96	5
TAP	48	144	0
TAP	48	192	0
TAP	48	288	6
TAP	48	336	7
STR	49	0	0
SI_	49	0	0	96	48	4
STR	49	96	0
SCL	49	96	0	96	48	5
SCR	49	96	0	96	48	3
TAP	49	192	0
TAP	49	288	1
TAP	49	288	7
STR	50	0	1
SCR	50	0	1	96	48	3
STR	50	0	5
SCL	50	0	5	96	48	3
STR	50	96	1
SCL	50	96	1	96	48	7
STR	50	96	5
SCR	50	96	5	96	48	7
TAP	50	192	1
TAP	50	192	5
TAP	50	288	3
TAP	50	288	7
STR	51	0	1
SCR	51	0	1	96	48	4
TAP	51	0	7
STR	51	96	5
SCR	51	96	5	96	48	0
TAP	51	144	5
TAP	51	240	3
TAP	51	288	2
TAP	51	336	1
TAP	52	0	0
TAP	52	0	5
TAP	52	48	1
TAP	52	48	6
TAP	52	96	2
STR	52	96	7
SCL	52	96	7	96	48	4
SCR	52	96	7	96	48	2
TAP	52	144	7
STR	52	192	7
SF_	52	192	7	96	48	3
TAP	52	288	7
TAP	53	0	0
STR	53	0	6
SCL	53	0	6	96	48	3
STR	53	96	2
SCL	53	96	2	96	48	7
TAP	53	144	2
TAP	53	240	4
TAP	53	288	5
TAP	53	336	6
TAP	54	0	2
TAP	54	0	7
TAP	54	48	1
TAP	54	48	6
TAP	54	96	0
TAP	54	96	5
TAP	54	144	1
TAP	54	144	6
HLD	54	192	2	96
TAP	54	192	7
TAP	54	240	7
TAP	54	256	6
TAP	54	272	5
TAP	54	288	4
STR	55	0	1
SCR	55	0	1	96	48	4
TAP	55	0	7
STR	55	96	5
SCR	55	96	5	96	48	0
TAP	55	144	5
TAP	55	240	3
TAP	55	288	2
TAP	55	336	1
TAP	56	0	0
TAP	56	0	5
TAP	56	48	1
TAP	56	48	6
TAP	56	96	2
STR	56	96	7
SF_	56	96	7	96	48	3
TAP	56	144	7
TAP	56	192	7
TAP	56	288	1
TAP	56	336	0
STR	57	0	7
SI_	57	0	7	96	48	3
STR	57	96	7
SCL	57	96	7	96	48	4
SCR	57	96	7	96	48	2
TAP	57	192	7
TAP	57	288	0
TAP	57	288	6
STR	58	0	3
SI_	58	0	3	96	48	0
SI_	58	0	3	96	48	1
STR	58	96	3
SI_	58	96	3	96	48	5
SI_	58	96	3	96	48	6
STR	58	192	3
SF_	58	192	3	96	48	7
TAP	58	288	3
STR	59	0	2
SI_	59	0	2	96	48	6
TAP	59	0	5
STR	59	96	4
SI_	59	96	4	96	48	0
TAP	59	144	4
TAP	59	240	1
TAP	59	288	2
TAP	59	336	3
HLD	60	0	4	192
TAP	60	48	5
TAP	60	96	6
TAP	60	144	7
STR	60	192	0
SCR	60	192	0	96	48	3
TAP	60	288	0
STR	60	336	0
SCL	60	336	0	96	48	5
TAP	61	48	0
TAP	61	96	0
TAP	61	192	4
TAP	61	192	5
TAP	61	240	3
TAP	61	240	6
TAP	61	288	2
TAP	61	288	7
TAP	61	336	1
TAP	61	360	1
TAP	62	24	0
TAP	62	48	0
TAP	62	96	1
TAP	62	112	2
TAP	62	128	3
TAP	62	144	0
TAP	62	160	7
TAP	62	176	6
TAP	62	192	2
TAP	62	208	3
TAP	62	224	4
TAP	62	240	7
TAP	62	256	6
TAP	62	272	5
BRK	62	288	1
TAP	63	0	2
STR	63	0	5
SI_	63	0	5	96	48	1
STR	63	96	3
SI_	63	96	3	96	48	7
TAP	63	144	3
TAP	63	240	6
TAP	63	288	5
TAP	63	336	4
HLD	64	0	3	192
TAP	64	48	2
TAP	64	96	1
TAP	64	144	0
STR	64	192	7
SCL	64	192	7	96	48	4
TAP	64	288	7
STR	64	336	7
SCR	64	336	7	96	48	2
TAP	65	48	7
TAP	65	96	7
TAP	65	192	6
TAP	65	192	7
TAP	65	240	0
TAP	65	240	5
TAP	65	288	1
TAP	65	288	4
TAP	65	336	2
TAP	65	360	2
TAP	66	24	3
TAP	66	48	3
TAP	66	96	2
TAP	66	120	4
TAP	66	144	2
TAP	66	168	4
TAP	66	192	2
TAP	66	208	1
TAP	66	224	0
TAP	66	240	7
TAP	66	256	6
TAP	66	272	5
BRK	66	288	3
BRK	66	288	4
STR	67	0	1
SI_	67	0	1	96	48	5
TAP	67	0	3
STR	67	96	7
SI_	67	96	7	96	48	3
TAP	67	144	7
TAP	67	240	2
TAP	67	288	1
TAP	67	336	0
HLD	68	0	7	192
TAP	68	48	6
TAP	68	96	5
TAP	68	144	4
STR	68	192	3
SCR	68	192	3	96	48	6
TAP	68	288	3
STR	68	336	3
SCL	68	336	3	96	48	0
TAP	69	48	3
TAP	69	96	3
TAP	69	192	2
TAP	69	192	7
TAP	69	240	1
TAP	69	240	6
TAP	69	288	0
TAP	69	288	5
TAP	69	336	6
TAP	69	360	6
TAP	70	24	7
TAP	70	48	7
TAP	70	96	6
TAP	70	112	5
TAP	70	128	4
TAP	70	144	7
TAP	70	160	0
TAP	70	176	1
TAP	70	192	5
TAP	70	208	4
TAP	70	216	3
TAP	70	240	0
TAP	70	256	1
TAP	70	272	2
BRK	70	288	6
TAP	71	0	4
STR	71	0	6
SI_	71	0	6	96	48	2
STR	71	96	0
SI_	71	96	0	96	48	4
TAP	71	144	0
TAP	71	240	5
TAP	71	288	6
TAP	71	336	7
HLD	72	0	0	192
TAP	72	48	1
TAP	72	96	2
TAP	72	144	3
STR	72	192	4
SCL	72	192	4	96	48	1
TAP	72	288	4
STR	72	336	4
SCR	72	336	4	96	48	7
TAP	73	48	4
TAP	73	96	4
TAP	73	192	1
TAP	73	192	4
TAP	73	240	2
TAP	73	240	5
TAP	73	288	3
TAP	73	288	6
TAP	73	336	5
TAP	73	360	5
TAP	74	24	4
TAP	74	48	4
TAP	74	96	2
TAP	74	120	5
TAP	74	144	1
TAP	74	168	6
TAP	74	192	0
TAP	74	216	7
TAP	74	240	0
TAP	74	264	7
TAP	74	288	1
TAP	74	304	2
TAP	74	320	3
TAP	74	336	4
TAP	74	352	5
TAP	74	368	6
BRK	75	0	0
BRK	75	0	7
TAP	75	96	2
HLD	75	96	5	192
TAP	75	144	4
TAP	75	240	4
TAP	75	288	2
HLD	76	0	2	288
TAP	76	0	3
TAP	76	96	5
TAP	76	144	3
TAP	76	240	3
TAP	76	288	5
TAP	77	0	4
HLD	77	0	5	288
TAP	77	96	2
TAP	77	144	4
TAP	77	240	4
TAP	77	288	2
HLD	78	0	2	288
TAP	78	0	3
TAP	78	96	5
TAP	78	144	3
TAP	78	240	3
TAP	78	288	5
TAP	78	336	3
TAP	78	360	4
STR	79	0	3
SXL	79	0	3	96	192	6
SXR	79	0	3	96	192	0
STR	80	0	7
SXL	80	0	7	96	192	2
SXR	80	0	7	96	192	4
STR	81	0	1
SI_	81	0	1	96	48	4
STR	81	144	5
SI_	81	144	5	96	48	0
STR	81	336	1
SXR	81	336	1	96	144	6
STR	81	336	2
SUR	81	336	2	96	144	5
STR	82	288	0
SI_	82	288	0	96	48	3
STR	82	288	7
SI_	82	288	7	96	48	4
BRK	83	0	0
BRK	83	0	7

T_REC_TAP	452
T_REC_BRK	14
T_REC_XTP	0
T_REC_HLD	39
T_REC_XHO	0
T_REC_STR	106
T_REC_BST	0
T_REC_XST	0
T_REC_TTP	0
T_REC_THO	0
T_REC_SLD	119
T_REC_ALL	730
T_NUM_TAP	558
T_NUM_BRK	14
T_NUM_HLD	39
T_NUM_SLD	119
T_NUM_ALL	730
T_JUDGE_TAP	572
T_JUDGE_HLD	144
T_JUDGE_SLD	119
T_JUDGE_ALL	835
TTM_EACHPAIRS	94
TTM_SCR_TAP	279000
TTM_SCR_BRK	36400
TTM_SCR_HLD	39000
TTM_SCR_SLD	178500
TTM_SCR_ALL	532900
TTM_SCR_S	515600
TTM_SCR_SS	531500
TTM_RAT_ACV	10026

