VERSION	0.00.00	1.03.00
FES_MODE	0
BPM_DEF	146.000	146.000	146.000	146.000
MET_DEF	4	4
RESOLUTION	384
CLK_DEF	384
COMPATIBLE_CODE	MA2

BPM	0	0	146.000
MET	0	0	4	4

TAP	1	0	4
TAP	1	96	1
TAP	1	96	7
TAP	1	240	0
TAP	1	288	1
TAP	1	288	7
TAP	2	0	3
TAP	2	96	0
TAP	2	96	6
TAP	2	240	7
TAP	2	288	0
TAP	2	288	6
TAP	3	0	4
TAP	3	96	0
TAP	3	96	2
TAP	3	240	1
TAP	3	288	0
TAP	3	288	2
TAP	4	0	3
TAP	4	96	5
TAP	4	96	7
TAP	4	240	6
TAP	4	288	5
TAP	4	288	7
HLD	5	0	2	96
TAP	5	0	4
TAP	5	96	0
TAP	5	192	3
HLD	5	192	5	96
TAP	5	288	7
TAP	6	0	2
TAP	6	48	3
TAP	6	96	2
TAP	6	192	5
TAP	6	192	7
TAP	6	288	0
TAP	6	288	2
TAP	7	0	3
HLD	7	0	5	96
TAP	7	96	7
HLD	7	192	2	96
TAP	7	192	4
TAP	7	288	0
TAP	8	0	5
TAP	8	48	4
TAP	8	96	5
HLD	8	192	0	96
HLD	8	192	2	96
HLD	9	0	2	96
TAP	9	0	4
TAP	9	96	0
TAP	9	192	3
HLD	9	192	5	96
TAP	9	288	7
TAP	10	0	2
TAP	10	48	3
TAP	10	96	2
TAP	10	192	5
TAP	10	192	7
HLD	10	288	2	96
HLD	11	0	1	96
HLD	11	96	0	96
HLD	11	192	7	96
HLD	11	288	6	96
STR	12	0	5
SCR	12	0	5	96	96	2
BRK	12	288	1
BRK	12	288	6
TAP	13	0	2
TAP	13	0	3
TAP	13	96	5
TAP	13	96	7
TAP	13	192	3
TAP	13	192	4
TAP	13	288	0
TAP	13	288	7
TAP	14	0	4
TAP	14	0	5
TAP	14	96	0
TAP	14	96	2
TAP	14	192	6
TAP	14	240	7
TAP	14	288	6
TAP	15	0	4
TAP	15	0	5
TAP	15	96	0
TAP	15	96	2
TAP	15	192	3
TAP	15	192	4
TAP	15	288	0
TAP	15	288	7
TAP	16	0	2
TAP	16	0	3
TAP	16	96	5
TAP	16	96	7
TAP	16	192	1
TAP	16	240	0
TAP	16	288	1
TAP	17	0	2
TAP	17	0	3
TAP	17	96	4
TAP	17	96	7
TAP	17	192	3
TAP	17	192	4
TAP	17	288	1
TAP	17	288	6
TAP	18	0	4
TAP	18	0	5
TAP	18	96	0
TAP	18	96	3
TAP	18	192	6
TAP	18	240	7
TAP	18	288	6
TAP	19	0	4
TAP	19	0	5
TAP	19	96	0
TAP	19	96	3
TAP	19	192	3
TAP	19	192	4
TAP	19	288	1
TAP	19	288	6
BST	20	0	2
SCL	20	0	2	96	144	5
BST	20	0	3
SUL	20	0	3	96	144	4
HLD	21	0	2	96
TAP	21	96	3
HLD	21	192	5	96
TAP	21	288	4
HLD	22	0	1	96
TAP	22	96	0
STR	22	144	0
SI_	22	144	0	96	48	4
HLD	23	0	2	96
TAP	23	96	3
HLD	23	192	5	96
TAP	23	288	4
HLD	24	0	1	96
STR	24	96	0
SI_	24	96	0	96	48	4
HLD	25	0	5	96
TAP	25	96	4
HLD	25	192	2	96
TAP	25	288	3
HLD	26	0	6	96
TAP	26	96	7
STR	26	144	7
SI_	26	144	7	96	48	3
HLD	27	0	5	96
TAP	27	96	4
HLD	27	192	2	96
TAP	27	288	3
HLD	28	0	6	96
STR	28	96	7
SI_	28	96	7	96	48	3
BRK	29	0	4
BRK	29	0	5
TAP	29	96	1
TAP	29	144	0
TAP	29	192	1
TAP	29	288	6
TAP	29	336	7
STR	30	0	6
SSR	30	0	6	96	144	2
TAP	31	0	2
TAP	31	0	3
TAP	31	96	6
TAP	31	144	7
TAP	31	192	6
TAP	31	288	1
TAP	31	336	0
STR	32	0	1
SXR	32	0	1	96	168	6
TAP	33	0	0
STR	33	0	6
SCL	33	0	6	96	48	3
STR	33	192	1
SCR	33	192	1	96	48	4
HLD	34	0	6	96
TAP	34	96	7
TAP	34	144	7
TAP	34	240	0
TAP	34	240	5
STR	35	0	2
SCL	35	0	2	96	48	7
TAP	35	0	4
STR	35	192	5
SCR	35	192	5	96	48	0
HLD	36	0	2	96
TAP	36	96	3
TAP	36	144	3
TAP	36	192	2
TAP	36	288	1
TAP	36	288	4
BRK	37	0	3
BRK	37	0	7
TAP	37	96	0
TAP	37	96	4
TAP	37	192	2
TAP	37	192	6
TAP	37	288	1
TAP	37	288	5
STR	38	0	2
SI_	38	0	2	96	72	5
STR	38	0	6
SI_	38	0	6	96	72	1
TAP	38	288	3
TAP	38	288	7
HLD	39	0	5	96
HLD	39	0	6	96
HLD	39	192	1	96
HLD	39	192	2	96
STR	40	0	1
SXL	40	0	1	96	96	3
STR	40	0	6
SXR	40	0	6	96	96	4
TAP	40	288	1
TAP	40	288	6
TAP	41	0	2
TAP	41	0	3
TAP	41	96	4
TAP	41	96	6
TAP	41	192	2
TAP	41	192	7
TAP	41	288	0
TAP	41	288	4
BST	42	0	2
SCL	42	0	2	96	48	7
BST	42	0	6
SCL	42	0	6	96	48	3
TAP	42	192	0
TAP	42	192	4
TAP	42	288	2
TAP	42	288	6
BRK	43	0	0
BRK	43	0	5
TAP	43	96	1
TAP	43	96	7
TAP	43	192	0
TAP	43	192	6
TAP	43	288	1
TAP	43	288	7
TAP	44	0	4
TAP	44	48	4
TAP	44	96	2
TAP	44	96	3
HLD	44	192	0	48
HLD	44	192	6	48
HLD	44	288	1	48
HLD	44	288	7	48
TAP	45	0	0
TAP	45	0	6
TAP	45	96	1
TAP	45	96	7
TAP	45	192	0
TAP	45	192	6
TAP	45	288	1
TAP	45	288	7
TAP	46	0	4
TAP	46	48	4
TAP	46	96	2
TAP	46	96	3
BST	46	192	6
SI_	46	192	6	96	48	3
BST	46	192	7
SI_	46	192	7	96	48	2
TAP	47	0	0
TAP	47	0	5
TAP	47	96	1
TAP	47	96	7
TAP	47	192	0
TAP	47	192	6
TAP	47	288	1
TAP	47	288	7
TAP	48	0	4
TAP	48	48	4
TAP	48	96	2
TAP	48	96	3
TAP	48	192	0
TAP	48	192	5
TAP	48	288	7
TAP	48	336	6
HLD	49	0	5	96
HLD	49	96	3	96
HLD	49	192	1	96
TAP	49	288	7
BST	50	0	7
SI_	50	0	7	96	48	3
BST	50	192	0
SV_	50	192	0	96	48	3
BST	50	192	6
SV_	50	192	6	96	48	3
TAP	51	0	0
TAP	51	0	5
TAP	51	96	2
TAP	51	96	7
TAP	51	192	0
TAP	51	192	5
TAP	51	288	2
TAP	51	288	7
TAP	52	0	4
TAP	52	48	4
TAP	52	96	2
TAP	52	96	3
HLD	52	192	0	48
HLD	52	192	5	48
HLD	52	288	2	48
HLD	52	288	7	48
TAP	53	0	0
TAP	53	0	5
TAP	53	96	2
TAP	53	96	7
TAP	53	192	0
TAP	53	192	5
TAP	53	288	2
TAP	53	288	7
TAP	54	0	4
TAP	54	48	4
TAP	54	96	2
TAP	54	96	3
BST	54	192	6
SI_	54	192	6	96	48	3
BST	54	192	7
SI_	54	192	7	96	48	2
TAP	55	0	0
TAP	55	0	5
TAP	55	96	2
TAP	55	96	7
TAP	55	192	0
TAP	55	192	5
TAP	55	288	2
TAP	55	288	7
TAP	56	0	4
TAP	56	48	4
TAP	56	96	2
TAP	56	96	3
TAP	56	192	0
TAP	56	192	5
TAP	56	288	7
TAP	56	336	6
HLD	57	0	5	96
HLD	57	96	3	96
HLD	57	192	1	96
BST	57	288	7
SI_	57	288	7	96	48	3
BST	58	96	4
SF_	58	96	4	96	72	0
TAP	59	0	1
TAP	59	0	7
TAP	59	96	4
TAP	59	96	5
TAP	59	144	4
TAP	59	144	5
TAP	59	240	2
TAP	59	240	3
TAP	59	288	2
TAP	59	288	3
TAP	60	0	6
TAP	60	48	7
HLD	60	96	6	96
TAP	60	192	0
TAP	60	288	1
TAP	60	288	3
TAP	60	336	1
TAP	60	336	3
TAP	61	48	4
TAP	61	48	6
TAP	61	96	4
TAP	61	96	6
TAP	61	192	1
TAP	61	240	1
TAP	61	288	0
TAP	62	0	6
TAP	62	48	6
TAP	62	96	7
TAP	62	192	3
TAP	62	216	4
TAP	62	240	3
TAP	62	264	4
BRK	62	288	3
TAP	63	0	0
TAP	63	0	6
TAP	63	96	2
TAP	63	96	3
TAP	63	144	2
TAP	63	144	3
TAP	63	240	4
TAP	63	240	5
TAP	63	288	4
TAP	63	288	5
TAP	64	0	1
TAP	64	48	0
HLD	64	96	1	96
TAP	64	192	7
TAP	64	288	4
TAP	64	288	6
TAP	64	336	4
TAP	64	336	6
TAP	65	48	1
TAP	65	48	3
TAP	65	96	1
TAP	65	96	3
TAP	65	192	6
TAP	65	240	6
TAP	65	288	7
TAP	66	0	1
TAP	66	48	1
TAP	66	96	0
TAP	66	192	4
TAP	66	216	3
TAP	66	240	4
TAP	66	264	3
BRK	66	288	4
TAP	67	0	1
TAP	67	0	6
TAP	67	96	2
TAP	67	96	3
TAP	67	144	2
TAP	67	144	3
TAP	67	240	0
TAP	67	240	6
TAP	67	288	0
TAP	67	288	6
TAP	68	0	5
TAP	68	48	4
HLD	68	96	5	96
BRK	68	192	7
TAP	68	288	0
TAP	68	288	2
TAP	68	336	0
TAP	68	336	2
TAP	69	48	5
TAP	69	48	7
TAP	69	96	5
TAP	69	96	7
TAP	69	192	2
TAP	69	240	2
TAP	69	288	1
TAP	69	288	3
TAP	70	0	5
TAP	70	48	5
TAP	70	96	4
TAP	70	96	6
TAP	70	192	0
TAP	70	216	7
TAP	70	240	0
TAP	70	264	7
BRK	70	288	0
TAP	71	0	1
TAP	71	0	6
TAP	71	96	4
TAP	71	96	5
TAP	71	144	4
TAP	71	144	5
TAP	71	240	1
TAP	71	240	7
TAP	71	288	1
TAP	71	288	7
TAP	72	0	2
TAP	72	48	3
HLD	72	96	2	96
BRK	72	192	0
TAP	72	288	5
TAP	72	288	7
TAP	72	336	5
TAP	72	336	7
TAP	73	48	0
TAP	73	48	2
TAP	73	96	0
TAP	73	96	2
TAP	73	192	3
TAP	73	192	4
TAP	73	240	3
TAP	73	240	4
TAP	73	288	2
TAP	73	288	5
BRK	73	336	2
BRK	73	336	5
TAP	74	48	0
TAP	74	72	7
TAP	74	96	0
TAP	74	120	7
TAP	74	144	0
TAP	74	168	7
TAP	74	192	0
TAP	74	216	7
TAP	74	240	0
TAP	74	264	7
BRK	74	288	0
HLD	75	0	5	624
TAP	75	96	4
TAP	75	192	6
TAP	75	288	3
TAP	76	0	7
TAP	76	96	2
HLD	76	144	2	96
HLD	77	0	2	576
TAP	77	96	3
TAP	77	192	1
TAP	77	288	4
TAP	78	0	0
HLD	78	96	5	96
HLD	79	0	0	288
BST	79	0	7
SXR	79	0	7	96	192	4
BST	80	0	3
SXR	80	0	3	96	192	0
HLD	80	0	4	288
HLD	81	0	1	96
HLD	81	0	7	96
HLD	81	144	2	144
HLD	81	144	6	144
HLD	81	336	3	192
HLD	81	336	5	192
TAP	82	192	4
TAP	82	288	2
TAP	82	288	5
TAP	82	336	1
TAP	82	336	6
BRK	83	0	0
BRK	83	0	7

T_REC_TAP	382
T_REC_BRK	18
T_REC_XTP	0
T_REC_HLD	61
T_REC_XHO	0
T_REC_STR	15
T_REC_BST	15
T_REC_XST	0
T_REC_TTP	0
T_REC_THO	0
T_REC_SLD	30
T_REC_ALL	521
T_NUM_TAP	397
T_NUM_BRK	33
T_NUM_HLD	61
T_NUM_SLD	30
T_NUM_ALL	521
T_JUDGE_TAP	430
T_JUDGE_HLD	149
T_JUDGE_SLD	30
T_JUDGE_ALL	609
TTM_EACHPAIRS	154
TTM_SCR_TAP	198500
TTM_SCR_BRK	85800
TTM_SCR_HLD	61000
TTM_SCR_SLD	45000
TTM_SCR_ALL	390300
TTM_SCR_S	375400
TTM_SCR_SS	387000
TTM_RAT_ACV	10085

