VERSION	0.00.00	1.03.00
FES_MODE	0
BPM_DEF	146.000	146.000	146.000	146.000
MET_DEF	4	4
RESOLUTION	384
CLK_DEF	384
COMPATIBLE_CODE	MA2

BPM	0	0	146.000
MET	0	0	4	4

TAP	5	0	2
TAP	5	96	2
TAP	5	192	1
TAP	5	192	3
TAP	6	0	5
TAP	6	96	5
TAP	6	192	4
TAP	6	192	6
TAP	7	0	2
TAP	7	96	2
TAP	7	192	3
TAP	7	288	3
TAP	8	0	4
TAP	8	96	4
TAP	8	192	3
TAP	8	192	5
TAP	9	0	6
TAP	9	96	6
TAP	9	192	5
TAP	9	192	7
TAP	10	0	1
TAP	10	96	1
TAP	10	192	0
TAP	10	192	2
TAP	11	0	6
TAP	11	96	6
TAP	11	192	7
TAP	11	288	7
TAP	12	0	0
TAP	12	96	0
TAP	12	192	1
TAP	12	192	7
BRK	12	288	1
BRK	12	288	7
TAP	13	0	2
TAP	13	96	2
TAP	13	192	0
TAP	13	192	1
TAP	14	0	5
TAP	14	96	5
TAP	14	192	6
TAP	14	192	7
TAP	15	0	2
TAP	15	96	2
TAP	15	192	3
TAP	15	288	3
TAP	16	0	4
TAP	16	96	4
TAP	16	192	6
TAP	16	192	7
TAP	17	0	6
TAP	17	96	6
TAP	17	192	0
TAP	17	192	7
TAP	18	0	1
TAP	18	96	1
TAP	18	192	0
TAP	18	192	7
TAP	19	0	5
TAP	19	96	5
TAP	19	192	4
TAP	19	288	4
STR	20	0	3
SCR	20	0	3	96	192	0
HLD	21	0	6	96
TAP	21	192	4
TAP	21	192	5
HLD	22	0	1	96
TAP	22	192	2
TAP	22	192	3
HLD	23	0	5	192
HLD	23	192	4	192
HLD	24	0	3	192
TAP	24	192	2
HLD	25	0	2	96
TAP	25	192	0
TAP	25	192	1
HLD	26	0	5	96
TAP	26	192	6
TAP	26	192	7
HLD	27	0	1	192
HLD	27	192	0	192
HLD	28	0	7	192
TAP	28	192	6
TAP	29	0	3
TAP	29	96	3
HLD	29	192	2	96
TAP	30	0	1
TAP	30	96	0
TAP	30	192	6
TAP	30	192	7
TAP	31	0	4
TAP	31	96	4
HLD	31	192	5	96
TAP	32	0	6
TAP	32	96	7
TAP	32	192	0
TAP	32	192	1
TAP	33	0	0
TAP	33	96	0
HLD	33	192	1	96
TAP	34	0	2
TAP	34	96	3
TAP	34	192	4
TAP	34	192	5
TAP	35	0	7
TAP	35	96	7
HLD	35	192	6	96
TAP	36	0	5
TAP	36	96	4
TAP	36	192	2
TAP	36	192	3
BRK	36	288	1
BRK	36	288	4
TAP	37	0	0
TAP	37	96	1
TAP	37	192	2
TAP	37	288	2
TAP	38	0	3
TAP	38	96	4
TAP	38	192	6
TAP	38	192	7
TAP	39	0	7
TAP	39	96	6
TAP	39	192	5
TAP	39	288	5
TAP	40	0	4
TAP	40	96	3
TAP	40	192	0
TAP	40	192	1
TAP	41	0	3
TAP	41	96	4
TAP	41	192	2
TAP	41	288	5
TAP	42	0	1
TAP	42	0	6
TAP	42	96	1
TAP	42	96	6
BRK	42	192	0
BRK	42	192	7
BRK	42	288	0
BRK	42	288	7
TAP	43	0	6
TAP	43	96	5
TAP	43	192	4
TAP	43	288	3
TAP	44	0	2
TAP	44	96	1
TAP	44	192	0
TAP	44	192	7
TAP	44	288	0
TAP	44	288	7
TAP	45	0	1
TAP	45	96	2
TAP	45	192	3
TAP	45	288	4
TAP	46	0	5
TAP	46	96	6
BRK	46	192	0
BRK	46	192	7
TAP	47	0	6
TAP	47	96	5
TAP	47	192	3
TAP	47	192	4
TAP	47	288	3
TAP	47	288	4
TAP	48	0	2
TAP	48	96	1
TAP	48	192	0
TAP	48	192	7
STR	49	0	1
SI_	49	0	1	96	96	4
STR	49	192	6
SI_	49	192	6	96	96	3
STR	50	0	0
SI_	50	0	0	96	96	4
TAP	50	192	5
TAP	51	0	1
TAP	51	96	2
TAP	51	192	3
TAP	51	288	4
TAP	52	0	5
TAP	52	96	6
TAP	52	192	0
TAP	52	192	7
TAP	52	288	0
TAP	52	288	7
TAP	53	0	6
TAP	53	96	5
TAP	53	192	4
TAP	53	288	3
TAP	54	0	2
TAP	54	96	1
BRK	54	192	0
BRK	54	192	7
TAP	55	0	1
TAP	55	96	2
TAP	55	192	3
TAP	55	192	4
TAP	55	288	3
TAP	55	288	4
TAP	56	0	5
TAP	56	96	6
TAP	56	192	0
TAP	56	192	7
STR	57	0	6
SI_	57	0	6	96	96	3
STR	57	192	1
SI_	57	192	1	96	96	4
STR	58	0	7
SI_	58	0	7	96	96	3
TAP	59	0	4
TAP	59	96	5
TAP	59	192	6
TAP	59	192	7
TAP	59	288	6
TAP	59	288	7
TAP	60	0	0
TAP	60	96	1
TAP	60	192	2
TAP	60	192	3
TAP	61	0	4
TAP	61	0	5
TAP	61	96	6
TAP	61	192	2
TAP	61	192	3
TAP	61	288	1
TAP	62	0	0
TAP	62	0	7
TAP	62	96	1
TAP	62	96	6
TAP	62	192	2
TAP	62	192	5
TAP	63	0	3
TAP	63	96	2
TAP	63	192	0
TAP	63	192	1
TAP	63	288	0
TAP	63	288	1
TAP	64	0	7
TAP	64	96	6
TAP	64	192	4
TAP	64	192	5
TAP	65	0	2
TAP	65	0	3
TAP	65	96	1
TAP	65	192	4
TAP	65	192	5
TAP	65	288	6
STR	66	0	3
SI_	66	0	3	96	96	0
STR	66	0	4
SI_	66	0	4	96	96	7
TAP	67	0	3
TAP	67	0	4
TAP	67	96	2
TAP	67	96	3
TAP	67	192	3
TAP	67	192	4
TAP	67	288	4
TAP	67	288	5
TAP	68	0	6
TAP	68	0	7
TAP	68	96	0
TAP	68	96	1
TAP	68	192	2
TAP	68	192	3
HLD	69	0	2	96
TAP	69	96	3
HLD	69	192	5	96
TAP	69	288	4
HLD	70	0	1	96
TAP	70	96	2
HLD	70	192	6	96
TAP	70	288	5
TAP	71	0	0
TAP	71	0	7
TAP	71	96	6
TAP	71	96	7
TAP	71	192	0
TAP	71	192	7
TAP	71	288	0
TAP	71	288	1
TAP	72	0	2
TAP	72	0	3
TAP	72	96	4
TAP	72	96	5
TAP	72	192	6
TAP	72	192	7
HLD	73	0	6	96
TAP	73	96	7
HLD	73	192	1	96
TAP	73	288	0
HLD	74	0	5	96
TAP	74	96	4
HLD	74	192	2	96
TAP	74	288	3
TAP	75	0	1
TAP	75	96	0
TAP	75	192	2
TAP	75	192	7
TAP	76	0	6
TAP	76	96	7
TAP	76	192	0
TAP	76	192	5
TAP	77	0	2
TAP	77	96	3
TAP	77	192	1
TAP	77	192	4
TAP	78	0	5
TAP	78	96	4
TAP	78	192	3
TAP	78	192	6
STR	79	0	0
SXL	79	0	0	96	384	3
STR	79	0	7
SXR	79	0	7	96	384	4
STR	81	0	3
SXR	81	0	3	96	384	0
STR	81	0	4
SXL	81	0	4	96	384	7
BRK	83	0	1
BRK	83	0	6

T_REC_TAP	261
T_REC_BRK	14
T_REC_XTP	0
T_REC_HLD	22
T_REC_XHO	0
T_REC_STR	13
T_REC_BST	0
T_REC_XST	0
T_REC_TTP	0
T_REC_THO	0
T_REC_SLD	13
T_REC_ALL	323
T_NUM_TAP	274
T_NUM_BRK	14
T_NUM_HLD	22
T_NUM_SLD	13
T_NUM_ALL	323
T_JUDGE_TAP	288
T_JUDGE_HLD	56
T_JUDGE_SLD	13
T_JUDGE_ALL	357
TTM_EACHPAIRS	74
TTM_SCR_TAP	137000
TTM_SCR_BRK	36400
TTM_SCR_HLD	22000
TTM_SCR_SLD	19500
TTM_SCR_ALL	214900
TTM_SCR_S	207100
TTM_SCR_SS	213500
TTM_RAT_ACV	10065

