VERSION	0.00.00	1.03.00
FES_MODE	0
BPM_DEF	146.000	146.000	146.000	146.000
MET_DEF	4	4
RESOLUTION	384
CLK_DEF	384
COMPATIBLE_CODE	MA2

BPM	0	0	146.000
MET	0	0	4	4

TAP	5	0	0
TAP	5	192	0
TAP	6	0	1
TAP	6	192	1
TAP	7	0	2
TAP	7	192	2
TAP	8	0	3
TAP	8	96	3
TAP	8	192	3
TAP	9	0	4
TAP	9	192	4
TAP	10	0	5
TAP	10	192	5
TAP	11	0	6
TAP	11	192	6
TAP	12	0	7
TAP	12	96	7
BRK	12	192	7
TAP	13	0	0
TAP	13	0	7
TAP	13	192	7
TAP	14	0	6
TAP	14	192	6
TAP	14	192	7
TAP	15	0	5
TAP	15	192	5
TAP	16	0	4
TAP	16	192	3
TAP	16	192	4
TAP	17	0	3
TAP	17	192	3
TAP	18	0	2
TAP	18	192	2
TAP	18	192	3
TAP	19	0	1
TAP	19	192	1
TAP	20	0	0
TAP	20	192	0
TAP	20	192	7
TAP	21	0	1
TAP	21	192	1
TAP	22	0	2
TAP	22	96	2
TAP	22	192	2
TAP	23	0	3
TAP	23	192	3
TAP	24	0	4
TAP	24	96	4
TAP	24	192	3
TAP	24	192	4
TAP	25	0	5
TAP	25	192	5
TAP	26	0	6
TAP	26	96	6
TAP	26	192	6
TAP	27	0	7
TAP	27	192	7
TAP	28	0	0
TAP	28	96	0
TAP	28	192	0
TAP	28	192	7
TAP	29	0	6
TAP	29	192	6
TAP	30	0	5
TAP	30	96	5
TAP	30	192	5
TAP	31	0	4
TAP	31	192	4
TAP	32	0	3
TAP	32	96	3
TAP	32	192	3
TAP	32	192	4
TAP	33	0	2
TAP	33	192	2
TAP	34	0	1
TAP	34	96	1
TAP	34	192	1
TAP	35	0	0
TAP	35	192	0
TAP	36	0	7
TAP	36	96	7
TAP	36	192	0
TAP	36	192	7
STR	37	0	0
SI_	37	0	0	96	288	3
STR	39	0	7
SI_	39	0	7	96	288	4
TAP	41	0	0
TAP	41	0	7
TAP	41	192	0
TAP	41	192	7
TAP	42	0	0
TAP	42	0	7
TAP	42	96	0
TAP	42	96	7
BRK	42	192	0
BRK	42	192	7
TAP	43	0	0
TAP	43	96	0
TAP	43	192	0
TAP	44	0	1
TAP	44	96	1
TAP	44	192	1
TAP	45	0	2
TAP	45	96	2
TAP	45	192	2
TAP	46	0	3
TAP	46	96	3
TAP	46	192	3
TAP	46	192	4
TAP	47	0	4
TAP	47	96	4
TAP	47	192	4
TAP	48	0	5
TAP	48	96	5
TAP	48	192	5
TAP	49	0	6
TAP	49	96	6
TAP	49	192	6
TAP	50	0	7
TAP	50	96	7
TAP	50	192	0
TAP	50	192	7
TAP	51	0	6
TAP	51	96	6
TAP	51	192	6
TAP	52	0	5
TAP	52	96	5
TAP	52	192	5
TAP	53	0	4
TAP	53	96	4
TAP	53	192	4
TAP	54	0	3
TAP	54	96	3
TAP	54	192	3
TAP	54	192	4
TAP	55	0	2
TAP	55	96	2
TAP	55	192	2
TAP	56	0	1
TAP	56	96	1
TAP	56	192	1
TAP	57	0	0
TAP	57	96	0
TAP	57	192	0
TAP	58	0	7
TAP	58	96	7
BRK	58	192	0
BRK	58	192	7
TAP	59	0	0
TAP	59	96	0
TAP	59	192	0
TAP	59	288	0
TAP	60	0	1
TAP	60	96	1
TAP	60	192	0
TAP	60	192	1
STR	61	0	2
SI_	61	0	2	96	288	6
TAP	63	0	7
TAP	63	96	7
TAP	63	192	7
TAP	63	288	7
TAP	64	0	6
TAP	64	96	6
TAP	64	192	6
TAP	64	192	7
STR	65	0	5
SI_	65	0	5	96	288	1
TAP	67	0	0
TAP	67	96	0
TAP	67	192	1
TAP	67	288	1
TAP	68	0	2
TAP	68	96	2
TAP	68	192	3
TAP	68	192	4
STR	69	0	4
SI_	69	0	4	96	288	7
TAP	71	0	7
TAP	71	96	7
TAP	71	192	6
TAP	71	288	6
TAP	72	0	5
TAP	72	96	5
TAP	72	192	3
TAP	72	192	4
STR	73	0	3
SI_	73	0	3	96	288	0
HLD	75	0	0	384
HLD	75	0	1	384
HLD	77	0	6	384
HLD	77	0	7	384
HLD	79	0	0	192
HLD	80	0	7	192
TAP	81	0	0
TAP	81	96	0
TAP	81	192	0
TAP	82	0	7
TAP	82	96	7
TAP	82	192	7
BRK	83	0	0
BRK	83	0	7

T_REC_TAP	178
T_REC_BRK	7
T_REC_XTP	0
T_REC_HLD	6
T_REC_XHO	0
T_REC_STR	6
T_REC_BST	0
T_REC_XST	0
T_REC_TTP	0
T_REC_THO	0
T_REC_SLD	6
T_REC_ALL	203
T_NUM_TAP	184
T_NUM_BRK	7
T_NUM_HLD	6
T_NUM_SLD	6
T_NUM_ALL	203
T_JUDGE_TAP	191
T_JUDGE_HLD	40
T_JUDGE_SLD	6
T_JUDGE_ALL	237
TTM_EACHPAIRS	25
TTM_SCR_TAP	92000
TTM_SCR_BRK	18200
TTM_SCR_HLD	6000
TTM_SCR_SLD	9000
TTM_SCR_ALL	125200
TTM_SCR_S	120800
TTM_SCR_SS	124500
TTM_RAT_ACV	10056

