VERSION	0.00.00	1.03.00
FES_MODE	0
BPM_DEF	152.000	152.000	152.000	152.000
MET_DEF	4	4
RESOLUTION	384
CLK_DEF	384
COMPATIBLE_CODE	MA2

BPM	0	0	152.000
MET	0	0	4	4

TAP	1	0	7
TAP	1	96	6
HLD	1	192	5	72
HLD	1	264	4	72
HLD	1	336	3	144
TAP	2	48	2
TAP	2	96	2
HLD	2	192	1	72
HLD	2	264	2	72
HLD	2	336	3	144
TAP	3	48	4
TAP	3	96	4
HLD	3	192	6	72
HLD	3	264	5	72
HLD	3	336	4	144
TAP	4	48	5
TAP	4	96	5
HLD	4	192	3	72
HLD	4	264	2	72
TAP	4	336	1
STR	5	0	3
SI_	5	0	3	96	48	7
TAP	5	0	7
TAP	5	96	6
STR	5	192	1
SI_	5	192	1	96	48	5
TAP	5	192	5
TAP	5	288	4
TAP	6	0	3
STR	6	0	7
SI_	6	0	7	96	48	3
TAP	6	96	2
TAP	6	192	1
STR	6	192	5
SI_	6	192	5	96	48	1
TAP	6	288	0
STR	7	0	3
SI_	7	0	3	96	48	7
TAP	7	0	7
TAP	7	96	6
TAP	7	192	6
TAP	7	216	6
TAP	7	264	3
TAP	7	264	5
TAP	7	312	2
TAP	7	312	4
TAP	7	360	1
TAP	7	360	3
TAP	8	0	1
TAP	8	0	3
BST	8	96	0
SXL	8	96	0	96	96	3
BST	8	96	7
SXR	8	96	7	96	96	4
TAP	9	0	2
TAP	9	48	3
TAP	9	96	1
TAP	9	96	4
TAP	9	144	5
TAP	9	192	3
TAP	9	192	7
TAP	9	216	3
TAP	9	216	7
TAP	9	264	2
TAP	9	264	6
TAP	9	312	1
TAP	9	312	5
TAP	9	360	0
TAP	9	360	4
TAP	10	48	0
TAP	10	96	1
TAP	10	144	3
STR	10	144	4
SI_	10	144	4	96	48	7
TAP	10	192	2
TAP	10	192	5
STR	10	264	3
SI_	10	264	3	96	48	0
TAP	10	336	4
TAP	11	48	5
TAP	11	96	4
TAP	11	96	6
TAP	11	144	7
TAP	11	192	0
TAP	11	192	2
TAP	11	240	1
TAP	11	288	2
TAP	11	288	4
HLD	11	336	3	144
TAP	12	48	4
TAP	12	96	5
TAP	12	144	6
STR	12	192	6
SI_	12	192	6	96	48	3
STR	12	192	7
SI_	12	192	7	96	48	3
TAP	12	216	6
TAP	12	216	7
TAP	13	0	5
TAP	13	48	4
TAP	13	96	3
TAP	13	96	6
TAP	13	144	2
TAP	13	192	0
TAP	13	192	4
TAP	13	216	0
TAP	13	216	4
TAP	13	264	1
TAP	13	264	5
TAP	13	312	2
TAP	13	312	6
TAP	13	360	3
TAP	13	360	7
TAP	14	48	7
TAP	14	96	6
STR	14	144	3
SV_	14	144	3	96	48	0
TAP	14	144	4
TAP	14	192	2
TAP	14	192	5
STR	14	264	4
SV_	14	264	4	96	48	7
TAP	14	336	3
TAP	15	48	2
TAP	15	96	1
TAP	15	96	3
TAP	15	144	0
TAP	15	192	5
TAP	15	192	7
TAP	15	240	6
TAP	15	288	3
TAP	15	288	5
HLD	15	336	4	240
TAP	16	48	3
TAP	16	96	2
TAP	16	144	1
TAP	16	192	0
TAP	16	240	7
BRK	16	288	4
BRK	16	288	6
HLD	16	336	1	120
STR	17	0	7
SI_	17	0	7	96	48	3
HLD	17	144	1	120
STR	17	192	6
SI_	17	192	6	96	48	2
TAP	17	336	1
TAP	18	0	4
TAP	18	0	6
TAP	18	48	2
TAP	18	96	1
TAP	18	96	3
HLD	18	144	0	120
STR	18	192	6
SI_	18	192	6	96	48	3
HLD	18	336	1	192
TAP	19	0	7
TAP	19	48	7
TAP	19	96	6
TAP	19	144	6
TAP	19	192	3
TAP	19	192	4
TAP	19	264	2
TAP	19	264	5
HLD	19	336	1	96
HLD	19	336	6	96
TAP	20	96	3
TAP	20	96	7
TAP	20	144	3
TAP	20	144	7
STR	20	192	2
SI_	20	192	2	96	48	5
TAP	20	192	5
HLD	20	336	6	120
STR	21	0	0
SI_	21	0	0	96	48	4
HLD	21	144	6	120
STR	21	192	1
SI_	21	192	1	96	48	5
TAP	21	336	6
TAP	22	0	1
TAP	22	0	3
TAP	22	48	5
TAP	22	96	4
TAP	22	96	6
TAP	22	144	2
TAP	22	192	0
TAP	22	192	7
STR	22	264	3
SXR	22	264	3	96	168	0
STR	22	264	4
SXL	22	264	4	96	168	7
TAP	23	240	2
TAP	23	240	5
TAP	23	288	1
TAP	23	288	6
TAP	23	336	0
TAP	23	336	7
TAP	24	0	2
TAP	24	24	3
TAP	24	48	4
TAP	24	72	5
BRK	24	96	1
BRK	24	96	6
TAP	24	240	2
TAP	24	240	7
TAP	24	336	2
TAP	24	336	7
HLD	25	0	6	72
HLD	25	72	2	168
HLD	25	144	3	96
TAP	25	288	1
TAP	25	288	4
HLD	26	0	1	72
HLD	26	72	5	168
HLD	26	144	4	96
TAP	26	288	3
TAP	26	288	6
TAP	27	0	4
HLD	27	48	4	96
TAP	27	96	6
HLD	27	144	6	96
TAP	27	192	0
HLD	27	240	0	96
TAP	27	288	2
HLD	27	336	2	96
TAP	28	0	4
HLD	28	48	4	96
TAP	28	96	6
TAP	28	144	6
TAP	28	192	5
TAP	28	192	7
TAP	28	264	0
TAP	28	264	2
TAP	28	336	1
TAP	28	336	6
TAP	29	0	3
TAP	29	0	5
TAP	29	48	3
TAP	29	48	5
STR	29	96	2
SI_	29	96	2	96	48	6
TAP	29	120	2
TAP	29	168	4
TAP	29	240	4
STR	29	288	5
SI_	29	288	5	96	48	1
TAP	29	312	5
TAP	29	360	2
TAP	30	48	2
STR	30	96	3
SI_	30	96	3	96	48	7
TAP	30	120	3
TAP	30	168	6
TAP	30	240	5
TAP	30	288	6
TAP	30	336	0
TAP	30	336	7
HLD	31	0	3	72
HLD	31	72	5	72
TAP	31	144	7
TAP	31	192	0
TAP	31	192	1
TAP	31	240	2
TAP	31	240	3
TAP	31	288	4
TAP	31	288	5
TAP	31	336	6
TAP	31	336	7
TAP	32	0	5
TAP	32	24	4
TAP	32	48	3
TAP	32	72	2
BRK	32	96	1
BRK	32	96	6
STR	32	192	4
SI_	32	192	4	96	48	1
STR	32	192	5
SI_	32	192	5	96	48	0
TAP	32	288	4
TAP	32	288	5
TAP	33	0	7
STR	33	72	7
SI_	33	72	7	96	48	2
STR	33	144	3
SI_	33	144	3	96	48	0
TAP	33	240	7
TAP	33	288	6
TAP	33	336	5
TAP	34	0	0
STR	34	72	0
SI_	34	72	0	96	48	5
STR	34	144	4
SI_	34	144	4	96	48	7
TAP	34	240	2
TAP	34	288	1
TAP	34	336	0
TAP	35	0	5
STR	35	72	5
SI_	35	72	5	96	48	0
STR	35	144	1
SI_	35	144	1	96	48	6
TAP	35	240	3
TAP	35	288	4
TAP	35	336	5
TAP	36	0	1
STR	36	72	1
SI_	36	72	1	96	48	4
STR	36	144	5
SI_	36	144	5	96	48	2
TAP	36	240	7
TAP	36	288	0
TAP	36	336	1
TAP	37	0	0
TAP	37	0	6
TAP	37	72	4
TAP	37	72	6
TAP	37	144	1
TAP	37	144	6
TAP	37	192	3
TAP	37	192	5
TAP	37	264	3
TAP	37	264	7
TAP	37	336	1
TAP	37	336	3
TAP	38	0	0
TAP	38	0	2
TAP	38	72	2
TAP	38	72	6
TAP	38	144	2
TAP	38	144	4
TAP	38	192	0
TAP	38	192	5
TAP	38	240	1
TAP	38	288	2
STR	38	288	5
SI_	38	288	5	96	48	0
TAP	38	336	3
STR	39	0	4
SI_	39	0	4	96	48	1
TAP	39	0	5
BRK	39	96	4
TAP	39	144	5
TAP	39	192	1
TAP	39	192	6
TAP	39	264	2
TAP	39	264	4
TAP	39	336	3
TAP	39	336	5
TAP	40	0	2
HLD	40	0	4	72
HLD	40	72	1	72
HLD	40	144	7	96
TAP	40	240	1
TAP	40	288	0
TAP	40	288	5
TAP	41	0	2
STR	41	72	2
SCR	41	72	2	96	48	6
STR	41	144	7
SUL	41	144	7	96	48	3
TAP	41	240	1
TAP	41	288	0
TAP	41	336	7
TAP	42	0	5
STR	42	72	5
SCL	42	72	5	96	48	1
STR	42	144	0
SUR	42	144	0	96	48	4
TAP	42	240	6
TAP	42	288	7
TAP	42	336	0
TAP	43	0	1
STR	43	72	1
SCR	43	72	1	96	48	5
STR	43	144	6
SUR	43	144	6	96	48	2
TAP	43	240	0
TAP	43	288	7
TAP	43	336	6
TAP	44	0	4
STR	44	72	4
SSL	44	72	4	96	72	0
BRK	44	240	2
BRK	44	288	6
TAP	45	0	1
STR	45	0	6
SI_	45	0	6	96	48	2
TAP	45	96	6
STR	45	96	7
SI_	45	96	7	96	48	3
STR	45	192	0
SI_	45	192	0	96	48	4
TAP	45	192	7
TAP	45	288	0
STR	45	288	1
SI_	45	288	1	96	48	5
STR	46	0	0
SI_	46	0	0	96	48	4
TAP	46	0	1
TAP	46	96	0
STR	46	96	7
SI_	46	96	7	96	48	3
STR	46	192	6
SI_	46	192	6	96	48	2
TAP	46	192	7
TAP	46	288	0
TAP	46	288	6
TAP	47	0	3
TAP	47	48	2
TAP	47	48	4
TAP	47	96	5
TAP	47	144	4
TAP	47	144	6
TAP	47	192	1
TAP	47	240	0
TAP	47	240	3
TAP	47	288	6
TAP	47	336	4
TAP	47	336	5
TAP	48	0	2
TAP	48	0	6
TAP	48	24	1
TAP	48	24	5
TAP	48	48	0
TAP	48	48	4
TAP	48	72	3
TAP	48	72	7
TAP	48	120	0
TAP	48	120	4
TAP	48	168	1
TAP	48	168	5
TAP	48	216	2
TAP	48	216	4
TAP	48	264	0
TAP	48	264	7
STR	48	288	0
SI_	48	288	0	96	48	4
STR	48	288	7
SI_	48	288	7	96	48	3
TAP	48	336	1
TAP	48	336	6
BRK	49	0	0
BRK	49	0	7
TAP	49	96	2
TAP	49	96	7
TAP	49	144	6
TAP	49	192	0
TAP	49	192	4
TAP	49	216	0
TAP	49	216	4
TAP	49	264	1
TAP	49	264	5
TAP	49	312	2
TAP	49	312	6
TAP	49	360	3
TAP	49	360	7
TAP	50	48	3
TAP	50	96	2
TAP	50	144	0
STR	50	144	7
SV_	50	144	7	96	48	4
TAP	50	192	1
TAP	50	192	6
STR	50	264	0
SV_	50	264	0	96	48	3
TAP	50	336	7
TAP	51	48	6
TAP	51	96	5
TAP	51	96	7
TAP	51	144	4
TAP	51	192	1
TAP	51	192	3
TAP	51	240	2
TAP	51	288	1
TAP	51	288	7
HLD	51	336	0	192
TAP	52	48	7
TAP	52	96	6
TAP	52	144	5
STR	52	192	2
SI_	52	192	2	96	48	7
STR	52	192	3
SI_	52	192	3	96	48	6
BRK	52	288	2
BRK	52	288	3
STR	53	0	1
SI_	53	0	1	96	24	5
STR	53	72	4
SCR	53	72	4	96	48	7
STR	53	144	0
SI_	53	144	0	96	48	3
TAP	53	240	5
TAP	53	288	6
TAP	53	336	7
STR	54	0	5
SI_	54	0	5	96	24	1
STR	54	72	0
SCR	54	72	0	96	48	3
STR	54	144	4
SI_	54	144	4	96	48	7
TAP	54	240	2
TAP	54	288	1
TAP	54	336	0
STR	55	0	0
SI_	55	0	0	96	24	5
STR	55	72	6
SCR	55	72	6	96	48	1
STR	55	144	2
SI_	55	144	2	96	48	5
TAP	55	240	7
TAP	55	288	6
TAP	55	336	5
STR	56	0	4
SI_	56	0	4	96	24	1
STR	56	72	2
SCR	56	72	2	96	48	5
STR	56	144	6
SI_	56	144	6	96	48	1
TAP	56	240	3
TAP	56	288	2
TAP	56	336	1
STR	57	0	6
SCR	57	0	6	96	48	2
HLD	57	72	3	72
STR	57	192	1
SCL	57	192	1	96	48	5
HLD	57	264	4	72
STR	58	0	7
SCL	58	0	7	96	48	3
HLD	58	72	1	72
TAP	58	192	7
TAP	58	240	6
STR	58	288	2
SI_	58	288	2	96	48	7
TAP	58	288	5
TAP	58	336	4
TAP	59	0	2
STR	59	0	3
SI_	59	0	3	96	48	6
BRK	59	96	3
TAP	59	144	2
TAP	59	192	1
TAP	59	192	6
TAP	59	264	4
TAP	59	264	5
TAP	59	336	1
TAP	59	336	3
HLD	60	0	2	72
TAP	60	0	4
HLD	60	72	6	72
HLD	60	144	0	96
TAP	60	240	6
TAP	60	288	2
TAP	60	288	7
STR	61	0	2
SI_	61	0	2	96	24	7
STR	61	72	5
SUL	61	72	5	96	48	0
STR	61	144	1
SCR	61	144	1	96	48	4
TAP	61	240	5
TAP	61	288	6
TAP	61	336	7
STR	62	0	5
SI_	62	0	5	96	24	0
STR	62	72	2
SUR	62	72	2	96	48	7
STR	62	144	6
SCL	62	144	6	96	48	3
TAP	62	240	0
TAP	62	288	1
TAP	62	336	2
STR	63	0	1
SI_	63	0	1	96	24	4
STR	63	72	6
SUR	63	72	6	96	48	3
STR	63	144	2
SCL	63	144	2	96	48	7
TAP	63	240	6
TAP	63	288	5
TAP	63	336	4
STR	64	0	6
SI_	64	0	6	96	24	3
STR	64	72	1
SUL	64	72	1	96	48	4
STR	64	144	5
SCR	64	144	5	96	48	0
BRK	64	240	1
BRK	64	288	1
TAP	65	0	0
STR	65	0	7
SI_	65	0	7	96	48	2
STR	65	96	1
SI_	65	96	1	96	48	4
TAP	65	96	7
TAP	65	192	1
STR	65	192	6
SI_	65	192	6	96	48	3
STR	65	288	0
SI_	65	288	0	96	48	5
TAP	65	288	6
TAP	66	0	0
STR	66	0	7
SI_	66	0	7	96	48	4
STR	66	96	3
SI_	66	96	3	96	48	0
TAP	66	96	7
TAP	66	192	3
STR	66	192	5
SI_	66	192	5	96	48	1
TAP	66	288	1
TAP	66	288	5
TAP	67	0	4
TAP	67	48	3
TAP	67	48	5
TAP	67	96	2
TAP	67	144	1
TAP	67	144	3
TAP	67	192	6
TAP	67	240	4
TAP	67	240	7
TAP	67	288	1
TAP	67	336	2
TAP	67	336	3
TAP	68	0	1
TAP	68	0	5
TAP	68	24	2
TAP	68	24	6
TAP	68	48	3
TAP	68	48	7
TAP	68	72	0
TAP	68	72	4
TAP	68	120	3
TAP	68	120	7
TAP	68	168	2
TAP	68	168	6
TAP	68	216	3
TAP	68	216	5
TAP	68	264	0
TAP	68	264	7
STR	68	288	0
SCR	68	288	0	96	576	6
TAP	68	288	7
TAP	68	336	1
TAP	68	336	6
BRK	69	0	0
BRK	69	0	7
TAP	69	96	7
TAP	69	192	0
TAP	69	288	1
TAP	70	0	2
TAP	70	96	3
TAP	70	192	4
TAP	70	288	5
TAP	70	288	7
TAP	71	0	2
TAP	71	48	2
TAP	71	48	3
TAP	71	96	5
TAP	71	144	4
TAP	71	144	5
TAP	71	192	1
TAP	71	240	0
TAP	71	240	1
TAP	71	288	6
TAP	71	336	6
TAP	71	336	7
TAP	72	0	4
TAP	72	48	2
TAP	72	48	3
TAP	72	96	1
TAP	72	144	0
TAP	72	144	7
TAP	72	192	3
TAP	72	192	4
TAP	72	240	2
TAP	72	240	5
TAP	72	288	1
TAP	72	288	6
STR	72	336	0
SV_	72	336	0	96	48	3
STR	72	336	6
SV_	72	336	6	96	48	3
TAP	73	0	0
TAP	73	0	6
STR	73	144	3
SCL	73	144	3	96	48	0
SCR	73	144	3	96	48	6
TAP	73	192	3
STR	73	336	0
SI_	73	336	0	96	48	4
STR	73	336	6
SI_	73	336	6	96	48	2
TAP	74	0	0
TAP	74	0	6
TAP	74	144	3
TAP	74	144	4
TAP	74	192	3
TAP	74	192	4
BRK	74	240	0
BRK	74	240	6
BRK	74	288	0
BRK	74	288	6
STR	74	336	1
SV_	74	336	1	96	48	4
STR	74	336	7
SV_	74	336	7	96	48	4
TAP	75	0	1
TAP	75	0	7
STR	75	144	4
SCL	75	144	4	96	48	1
SCR	75	144	4	96	48	7
TAP	75	192	4
STR	75	336	0
SI_	75	336	0	96	48	4
STR	75	336	6
SI_	75	336	6	96	48	2
TAP	76	0	0
TAP	76	0	6
STR	76	144	2
SI_	76	144	2	96	48	6
STR	76	144	4
SI_	76	144	4	96	48	0
TAP	76	192	2
TAP	76	192	4
TAP	77	0	2
TAP	77	0	4
TAP	77	96	3
TAP	77	96	5
TAP	77	192	0
TAP	77	192	2
TAP	77	288	5
TAP	77	288	7
STR	78	0	0
SI_	78	0	0	96	48	4
TAP	78	48	0
STR	78	96	1
SI_	78	96	1	96	48	5
TAP	78	144	1
STR	78	192	2
SI_	78	192	2	96	48	6
TAP	78	240	2
STR	78	288	3
SI_	78	288	3	96	48	7
TAP	78	336	3
STR	79	0	4
SI_	79	0	4	96	48	0
TAP	79	48	4
STR	79	96	5
SI_	79	96	5	96	48	1
TAP	79	144	5
STR	79	192	6
SI_	79	192	6	96	48	2
TAP	79	240	6
TAP	79	288	7
TAP	79	336	7
TAP	80	0	0
TAP	80	0	6
TAP	80	24	0
TAP	80	24	6
TAP	80	72	2
TAP	80	72	3
TAP	80	120	4
TAP	80	120	5
TAP	80	168	0
TAP	80	168	7
TAP	80	216	1
TAP	80	216	5
TAP	80	240	1
TAP	80	240	5
TAP	80	288	0
TAP	80	288	7
TAP	80	336	1
TAP	80	336	6
TAP	81	0	2
TAP	81	24	1
TAP	81	24	3
TAP	81	72	5
TAP	81	96	4
TAP	81	96	6
TAP	81	144	1
TAP	81	168	0
TAP	81	168	2
TAP	81	216	6
TAP	81	240	5
TAP	81	240	7
STR	81	288	0
SXR	81	288	0	96	72	6
STR	81	288	4
SXR	81	288	4	96	72	2
TAP	81	312	1
TAP	81	312	5
TAP	81	336	2
TAP	81	336	6
TAP	81	360	3
TAP	81	360	7

T_REC_TAP	501
T_REC_BRK	22
T_REC_XTP	0
T_REC_HLD	44
T_REC_XHO	0
T_REC_STR	112
T_REC_BST	2
T_REC_XST	0
T_REC_TTP	0
T_REC_THO	0
T_REC_SLD	116
T_REC_ALL	797
T_NUM_TAP	613
T_NUM_BRK	24
T_NUM_HLD	44
T_NUM_SLD	116
T_NUM_ALL	797
T_JUDGE_TAP	637
T_JUDGE_HLD	108
T_JUDGE_SLD	116
T_JUDGE_ALL	861
TTM_EACHPAIRS	196
TTM_SCR_TAP	306500
TTM_SCR_BRK	62400
TTM_SCR_HLD	44000
TTM_SCR_SLD	174000
TTM_SCR_ALL	586900
TTM_SCR_S	567000
TTM_SCR_SS	584500
TTM_RAT_ACV	10041

