VERSION	0.00.00	1.03.00
FES_MODE	0
BPM_DEF	152.000	152.000	152.000	152.000
MET_DEF	4	4
RESOLUTION	384
CLK_DEF	384
COMPATIBLE_CODE	MA2

BPM	0	0	152.000
MET	0	0	4	4

TAP	5	0	2
TAP	5	96	1
TAP	5	96	3
TAP	5	192	5
TAP	5	288	4
TAP	5	288	6
TAP	6	0	1
TAP	6	96	0
TAP	6	96	2
TAP	6	192	6
TAP	6	288	5
TAP	6	288	7
TAP	7	0	2
TAP	7	96	1
TAP	7	96	3
TAP	7	192	5
TAP	7	288	4
TAP	7	288	6
TAP	8	0	0
TAP	8	0	7
BRK	8	96	1
BRK	8	96	6
TAP	8	288	3
TAP	8	288	4
HLD	9	0	5	96
TAP	9	96	4
TAP	9	192	2
TAP	9	240	2
TAP	9	288	1
TAP	9	288	3
HLD	10	0	1	96
TAP	10	96	0
HLD	10	192	6	96
TAP	10	288	7
HLD	11	0	2	96
TAP	11	96	3
TAP	11	192	5
TAP	11	240	5
TAP	11	288	4
TAP	11	288	6
STR	12	0	3
SI_	12	0	3	96	48	0
STR	12	0	4
SI_	12	0	4	96	48	7
TAP	12	192	1
TAP	12	192	6
TAP	12	288	3
TAP	12	288	4
HLD	13	0	1	96
TAP	13	96	0
TAP	13	192	6
TAP	13	240	6
TAP	13	288	5
TAP	13	288	7
HLD	14	0	5	96
TAP	14	96	4
HLD	14	192	2	96
TAP	14	288	3
HLD	15	0	6	96
TAP	15	96	7
TAP	15	192	1
TAP	15	240	1
TAP	15	288	0
TAP	15	288	2
STR	16	0	0
SI_	16	0	0	96	48	3
STR	16	0	7
SI_	16	0	7	96	48	4
TAP	16	192	2
TAP	16	192	5
TAP	16	288	0
TAP	16	288	7
HLD	17	0	3	96
HLD	17	0	4	96
HLD	17	192	1	96
HLD	17	192	6	96
STR	18	0	0
SI_	18	0	0	96	48	5
HLD	18	0	1	96
HLD	18	192	6	96
STR	18	192	7
SI_	18	192	7	96	48	2
HLD	19	0	0	96
HLD	19	0	7	96
HLD	19	192	2	96
HLD	19	192	5	96
TAP	20	0	0
TAP	20	48	1
TAP	20	48	7
TAP	20	96	2
TAP	20	96	6
TAP	20	192	7
TAP	20	240	0
TAP	20	240	6
TAP	20	288	1
TAP	20	288	5
HLD	21	0	3	96
HLD	21	0	4	96
HLD	21	192	1	96
HLD	21	192	6	96
TAP	22	0	2
TAP	22	0	3
TAP	22	96	4
TAP	22	96	5
TAP	22	192	2
TAP	22	192	5
TAP	22	264	0
TAP	22	264	7
HLD	22	336	3	144
HLD	22	336	4	144
STR	23	240	3
SI_	23	240	3	96	48	0
STR	23	240	4
SI_	23	240	4	96	48	7
BRK	24	96	1
BRK	24	96	6
TAP	24	240	3
TAP	24	240	4
TAP	24	288	3
TAP	24	288	4
HLD	25	0	1	72
HLD	25	72	2	72
TAP	25	144	3
TAP	25	240	6
TAP	25	288	6
HLD	26	0	6	72
HLD	26	72	5	72
TAP	26	144	4
TAP	26	240	1
TAP	26	288	1
HLD	27	0	5	96
TAP	27	96	6
HLD	27	192	2	96
TAP	27	288	1
HLD	28	0	5	96
TAP	28	96	6
TAP	28	192	0
TAP	28	192	1
TAP	28	264	3
TAP	28	264	4
TAP	28	336	6
TAP	28	336	7
TAP	29	96	2
TAP	29	96	3
HLD	29	168	2	72
HLD	29	168	3	72
TAP	29	288	4
TAP	29	288	5
HLD	29	360	4	72
HLD	29	360	5	72
TAP	30	96	0
TAP	30	96	7
HLD	30	168	0	72
HLD	30	168	7	72
TAP	30	288	1
TAP	30	288	6
TAP	31	0	0
TAP	31	0	1
TAP	31	96	6
TAP	31	96	7
TAP	31	192	0
TAP	31	240	0
TAP	31	288	7
TAP	31	336	7
STR	32	0	1
SI_	32	0	1	96	48	4
STR	32	0	6
SI_	32	0	6	96	48	3
TAP	32	288	2
TAP	32	288	5
HLD	33	0	6	72
HLD	33	72	5	72
TAP	33	144	4
TAP	33	240	0
TAP	33	240	1
TAP	33	288	2
TAP	33	288	7
HLD	34	0	1	72
HLD	34	72	2	72
TAP	34	144	3
TAP	34	240	6
TAP	34	240	7
TAP	34	288	0
TAP	34	288	5
HLD	35	0	7	72
HLD	35	72	6	72
TAP	35	144	5
TAP	35	240	0
TAP	35	240	1
TAP	35	288	2
TAP	35	288	7
HLD	36	0	0	72
HLD	36	72	1	72
TAP	36	144	2
TAP	36	240	6
TAP	36	240	7
TAP	36	288	0
TAP	36	288	5
STR	37	0	6
SI_	37	0	6	96	48	3
STR	37	0	7
SI_	37	0	7	96	48	2
STR	37	192	0
SI_	37	192	0	96	48	5
STR	37	192	1
SI_	37	192	1	96	48	4
STR	38	0	0
SI_	38	0	0	96	48	2
STR	38	0	7
SI_	38	0	7	96	48	5
STR	38	192	3
SXR	38	192	3	96	144	0
STR	38	192	4
SXL	38	192	4	96	144	7
BRK	39	96	1
BRK	39	96	6
HLD	39	192	6	72
HLD	39	264	5	72
TAP	39	336	4
HLD	40	0	1	72
HLD	40	72	2	72
TAP	40	144	3
TAP	40	240	0
TAP	40	240	7
TAP	40	288	1
TAP	40	288	6
HLD	41	0	5	72
HLD	41	72	6	72
TAP	41	144	7
TAP	41	240	0
TAP	41	240	1
TAP	41	288	2
TAP	41	288	7
HLD	42	0	2	72
HLD	42	72	1	72
TAP	42	144	0
TAP	42	240	6
TAP	42	240	7
TAP	42	288	0
TAP	42	288	5
HLD	43	0	4	72
HLD	43	72	5	72
TAP	43	144	6
TAP	43	240	0
TAP	43	240	1
TAP	43	288	2
TAP	43	288	7
HLD	44	0	3	72
HLD	44	72	2	72
TAP	44	144	1
BRK	44	240	6
BRK	44	240	7
BRK	44	288	6
BRK	44	288	7
TAP	45	0	6
STR	45	0	7
SCR	45	0	7	96	48	2
TAP	45	96	6
STR	45	192	0
SCL	45	192	0	96	48	5
TAP	45	192	1
TAP	45	288	1
TAP	46	0	6
STR	46	0	7
SCR	46	0	7	96	48	2
TAP	46	96	6
STR	46	192	0
SCL	46	192	0	96	48	5
TAP	46	192	1
TAP	46	288	1
TAP	47	0	0
TAP	47	0	4
TAP	47	96	1
TAP	47	96	5
TAP	47	192	2
TAP	47	192	6
TAP	47	240	2
TAP	47	240	6
TAP	47	288	3
TAP	47	288	7
STR	48	0	0
SXR	48	0	0	96	192	5
STR	48	0	4
SXR	48	0	4	96	192	1
BRK	49	0	2
BRK	49	0	6
HLD	49	96	1	192
TAP	49	192	2
TAP	49	240	2
TAP	49	288	2
TAP	50	0	1
TAP	50	0	5
HLD	50	96	6	192
TAP	50	192	5
TAP	50	240	5
TAP	50	288	5
TAP	51	0	2
TAP	51	0	6
HLD	51	96	1	192
TAP	51	192	2
TAP	51	240	2
TAP	51	288	2
HLD	52	0	2	96
HLD	52	0	5	96
STR	52	192	3
SI_	52	192	3	96	48	7
HLD	53	0	5	72
HLD	53	72	6	72
STR	53	144	7
SI_	53	144	7	96	48	3
TAP	53	240	0
TAP	53	288	0
HLD	54	0	2	72
HLD	54	72	1	72
STR	54	144	0
SI_	54	144	0	96	48	4
TAP	54	240	7
TAP	54	288	7
HLD	55	0	4	72
HLD	55	72	5	72
STR	55	144	6
SI_	55	144	6	96	48	2
TAP	55	240	7
TAP	55	288	7
HLD	56	0	3	72
HLD	56	72	2	72
STR	56	144	1
SI_	56	144	1	96	48	5
TAP	56	240	0
TAP	56	288	0
STR	57	0	2
SI_	57	0	2	96	48	7
STR	57	0	3
SI_	57	0	3	96	48	6
STR	57	192	4
SI_	57	192	4	96	48	1
STR	57	192	5
SI_	57	192	5	96	48	0
STR	58	0	3
SI_	58	0	3	96	48	1
STR	58	0	4
SI_	58	0	4	96	48	6
STR	58	192	3
SXR	58	192	3	96	144	0
STR	58	192	4
SXL	58	192	4	96	144	7
BRK	59	96	1
BRK	59	96	6
HLD	59	192	0	72
HLD	59	264	1	72
TAP	59	336	2
HLD	60	0	7	72
HLD	60	72	6	72
TAP	60	144	5
TAP	60	240	3
TAP	60	240	4
TAP	60	288	2
TAP	60	288	5
TAP	61	0	0
HLD	61	0	6	72
HLD	61	72	5	72
STR	61	144	4
SI_	61	144	4	96	48	0
TAP	61	240	3
TAP	61	288	3
HLD	62	0	1	72
TAP	62	0	7
HLD	62	72	2	72
STR	62	144	3
SI_	62	144	3	96	48	7
TAP	62	240	4
TAP	62	288	4
TAP	63	0	1
HLD	63	0	7	72
HLD	63	72	6	72
STR	63	144	5
SI_	63	144	5	96	48	1
TAP	63	240	7
TAP	63	288	7
HLD	64	0	0	72
TAP	64	0	6
HLD	64	72	1	72
STR	64	144	2
SI_	64	144	2	96	48	6
BRK	64	240	0
BRK	64	288	0
STR	65	0	0
SCL	65	0	0	96	48	5
TAP	65	0	1
TAP	65	96	2
TAP	65	192	6
STR	65	192	7
SCR	65	192	7	96	48	2
TAP	65	288	5
STR	66	0	0
SCL	66	0	0	96	48	5
TAP	66	0	1
TAP	66	96	2
TAP	66	192	6
STR	66	192	7
SCR	66	192	7	96	48	2
TAP	66	288	5
TAP	67	0	3
TAP	67	0	7
TAP	67	96	2
TAP	67	96	6
TAP	67	192	1
TAP	67	192	5
TAP	67	240	1
TAP	67	240	5
TAP	67	288	0
TAP	67	288	4
STR	68	0	3
SXL	68	0	3	96	192	6
STR	68	0	7
SXL	68	0	7	96	192	2
BRK	69	0	1
BRK	69	0	5
TAP	69	96	0
HLD	69	96	6	192
TAP	69	192	5
TAP	69	240	5
TAP	69	288	4
TAP	70	0	2
TAP	70	0	6
HLD	70	96	1	192
TAP	70	96	7
TAP	70	192	2
TAP	70	240	2
TAP	70	288	3
TAP	71	0	1
TAP	71	0	5
TAP	71	96	0
HLD	71	96	6	192
TAP	71	192	7
TAP	71	240	7
TAP	71	288	0
TAP	72	0	2
TAP	72	0	6
HLD	72	96	1	192
TAP	72	96	7
HLD	72	192	0	96
TAP	72	336	3
TAP	72	336	4
HLD	73	0	3	72
HLD	73	0	4	72
TAP	73	144	1
TAP	73	144	6
HLD	73	192	1	72
HLD	73	192	6	72
TAP	73	336	0
STR	73	336	1
SI_	73	336	1	96	48	5
TAP	74	0	0
TAP	74	0	1
STR	74	144	6
SI_	74	144	6	96	48	2
TAP	74	144	7
TAP	74	192	6
TAP	74	192	7
TAP	74	336	3
TAP	74	336	4
HLD	75	0	3	72
HLD	75	0	4	72
TAP	75	144	1
TAP	75	144	6
HLD	75	192	1	72
HLD	75	192	6	72
TAP	75	336	0
STR	75	336	1
SI_	75	336	1	96	48	4
TAP	76	0	0
TAP	76	0	1
STR	76	144	6
SI_	76	144	6	96	48	3
TAP	76	144	7
TAP	76	192	6
TAP	76	192	7
STR	77	0	4
SF_	77	0	4	96	192	0
STR	78	0	3
SF_	78	0	3	96	192	7
TAP	79	0	3
TAP	79	0	4
TAP	79	96	2
TAP	79	96	5
TAP	79	192	1
TAP	79	192	6
TAP	79	288	0
TAP	79	288	7
HLD	80	0	2	48
HLD	80	0	5	48
TAP	80	72	3
TAP	80	72	4
TAP	80	120	3
TAP	80	120	4
STR	80	168	3
SI_	80	168	3	96	48	0
STR	80	168	4
SI_	80	168	4	96	48	7
TAP	81	24	0
TAP	81	24	2
TAP	81	96	0
TAP	81	96	2
TAP	81	168	5
TAP	81	168	7
TAP	81	240	5
TAP	81	240	7
TAP	81	312	3
TAP	81	336	4
TAP	81	360	3
TAP	82	0	4

T_REC_TAP	287
T_REC_BRK	18
T_REC_XTP	0
T_REC_HLD	97
T_REC_XHO	0
T_REC_STR	55
T_REC_BST	0
T_REC_XST	0
T_REC_TTP	0
T_REC_THO	0
T_REC_SLD	55
T_REC_ALL	512
T_NUM_TAP	342
T_NUM_BRK	18
T_NUM_HLD	97
T_NUM_SLD	55
T_NUM_ALL	512
T_JUDGE_TAP	360
T_JUDGE_HLD	208
T_JUDGE_SLD	55
T_JUDGE_ALL	623
TTM_EACHPAIRS	148
TTM_SCR_TAP	171000
TTM_SCR_BRK	46800
TTM_SCR_HLD	97000
TTM_SCR_SLD	82500
TTM_SCR_ALL	397300
TTM_SCR_S	383650
TTM_SCR_SS	395500
TTM_RAT_ACV	10045

