VERSION	0.00.00	1.03.00
FES_MODE	0
BPM_DEF	152.000	152.000	152.000	152.000
MET_DEF	4	4
RESOLUTION	384
CLK_DEF	384
COMPATIBLE_CODE	MA2

BPM	0	0	152.000
MET	0	0	4	4

TAP	5	0	3
TAP	5	96	3
TAP	5	192	2
TAP	6	0	2
TAP	6	96	2
TAP	6	192	1
TAP	7	0	1
TAP	7	96	1
TAP	7	192	0
TAP	8	0	0
BRK	8	96	0
TAP	9	0	6
TAP	9	96	6
TAP	9	192	7
TAP	10	0	1
TAP	10	96	1
TAP	10	192	0
TAP	11	0	7
TAP	11	96	7
TAP	11	192	0
TAP	11	288	0
TAP	12	0	7
TAP	12	96	0
TAP	12	192	1
TAP	12	192	6
TAP	13	0	2
TAP	13	96	2
TAP	13	192	3
TAP	14	0	5
TAP	14	96	5
TAP	14	192	4
TAP	15	0	3
TAP	15	96	3
TAP	15	192	4
TAP	15	288	4
TAP	16	0	3
TAP	16	96	4
TAP	16	192	2
TAP	16	192	5
HLD	17	0	2	96
HLD	17	0	3	96
TAP	17	192	1
TAP	17	192	4
HLD	18	0	2	96
HLD	18	0	3	96
TAP	18	192	1
TAP	18	192	4
STR	19	0	1
SI_	19	0	1	96	144	4
STR	20	0	0
SI_	20	0	0	96	144	5
HLD	21	0	4	96
HLD	21	0	5	96
TAP	21	192	3
TAP	21	192	6
HLD	22	0	4	96
HLD	22	0	5	96
TAP	22	192	3
TAP	22	192	6
TAP	23	0	4
TAP	23	96	3
STR	23	192	3
SI_	23	192	3	96	144	0
STR	23	192	4
SI_	23	192	4	96	144	7
TAP	24	192	0
TAP	24	192	7
STR	25	0	7
SI_	25	0	7	96	144	2
STR	26	0	6
SI_	26	0	6	96	144	2
TAP	27	0	5
TAP	27	96	5
TAP	27	192	4
TAP	27	288	4
TAP	28	0	3
TAP	28	0	4
TAP	28	96	3
TAP	28	96	4
TAP	28	192	2
TAP	28	192	5
STR	29	0	3
SI_	29	0	3	96	144	6
STR	30	0	2
SI_	30	0	2	96	144	6
TAP	31	0	1
TAP	31	96	1
TAP	31	192	0
TAP	31	288	0
TAP	32	0	0
TAP	32	0	7
TAP	32	96	1
TAP	32	96	6
HLD	33	0	6	96
TAP	33	96	7
HLD	33	192	1	96
TAP	33	288	0
STR	34	0	0
SI_	34	0	0	96	144	5
STR	34	0	1
SI_	34	0	1	96	144	4
HLD	35	0	2	96
TAP	35	96	3
HLD	35	192	5	96
TAP	35	288	4
STR	36	0	4
SI_	36	0	4	96	144	1
STR	36	0	5
SI_	36	0	5	96	144	0
TAP	37	0	1
TAP	37	96	1
TAP	37	192	0
TAP	37	192	1
TAP	38	0	2
TAP	38	96	2
TAP	38	192	2
TAP	38	192	3
STR	38	288	2
SI_	38	288	2	96	144	7
STR	38	288	3
SI_	38	288	3	96	144	7
TAP	40	0	6
TAP	40	0	7
TAP	40	96	6
TAP	40	96	7
TAP	40	192	0
TAP	40	192	5
HLD	41	0	1	96
TAP	41	96	0
HLD	41	192	6	96
TAP	41	288	7
STR	42	0	6
SI_	42	0	6	96	144	3
STR	42	0	7
SI_	42	0	7	96	144	2
HLD	43	0	5	96
TAP	43	96	4
HLD	43	192	2	96
TAP	43	288	3
TAP	44	0	2
TAP	44	0	3
TAP	44	96	2
TAP	44	96	3
TAP	44	192	1
TAP	44	192	4
HLD	45	0	5	192
TAP	45	96	4
TAP	45	192	4
HLD	46	0	2	192
TAP	46	96	3
TAP	46	192	3
TAP	47	0	5
TAP	47	96	4
TAP	47	96	5
TAP	47	192	2
TAP	47	288	2
TAP	47	288	3
TAP	48	0	4
TAP	48	96	3
TAP	48	192	3
TAP	48	192	4
TAP	48	288	2
TAP	48	288	5
BRK	49	0	1
BRK	49	0	6
TAP	49	192	0
TAP	50	0	1
TAP	50	96	0
TAP	50	192	2
TAP	50	192	7
TAP	51	0	6
TAP	51	192	7
TAP	52	0	6
TAP	52	96	7
TAP	52	192	0
TAP	52	192	5
BRK	53	0	1
TAP	53	96	0
TAP	53	96	1
TAP	53	192	6
TAP	53	288	6
TAP	53	288	7
STR	54	0	6
SI_	54	0	6	96	144	3
STR	54	0	7
SI_	54	0	7	96	144	2
TAP	55	0	5
TAP	55	96	4
TAP	55	96	5
TAP	55	192	2
TAP	55	288	2
TAP	55	288	3
STR	56	0	2
SI_	56	0	2	96	144	7
STR	56	0	3
SI_	56	0	3	96	144	6
TAP	57	0	6
TAP	57	96	7
TAP	57	192	0
TAP	57	192	5
TAP	58	0	5
TAP	58	96	4
TAP	58	192	3
TAP	58	192	6
STR	58	288	4
SI_	58	288	4	96	144	0
STR	58	288	5
SI_	58	288	5	96	144	0
TAP	60	0	0
TAP	60	0	1
TAP	60	96	2
TAP	60	96	7
TAP	60	192	3
TAP	60	192	6
BRK	61	0	6
TAP	61	96	6
TAP	61	96	7
TAP	61	192	1
TAP	61	288	0
TAP	61	288	1
STR	62	0	0
SI_	62	0	0	96	144	5
STR	62	0	1
SI_	62	0	1	96	144	4
TAP	63	0	2
TAP	63	96	2
TAP	63	96	3
TAP	63	192	5
TAP	63	288	4
TAP	63	288	5
TAP	64	0	4
TAP	64	0	5
TAP	64	96	4
TAP	64	96	5
BRK	64	192	3
BRK	64	192	6
HLD	65	0	2	192
TAP	65	96	3
TAP	65	192	3
HLD	66	0	5	192
TAP	66	96	4
TAP	66	192	4
TAP	67	0	2
TAP	67	96	2
TAP	67	96	3
TAP	67	192	5
TAP	67	288	4
TAP	67	288	5
TAP	68	0	2
TAP	68	0	3
TAP	68	96	4
TAP	68	96	5
TAP	68	192	3
TAP	68	192	4
TAP	68	288	2
TAP	68	288	5
BRK	69	0	1
BRK	69	0	6
TAP	69	192	0
TAP	69	288	0
TAP	70	0	7
TAP	70	96	7
TAP	70	192	6
TAP	71	0	6
TAP	71	96	6
TAP	71	192	7
TAP	71	288	7
TAP	72	0	0
TAP	72	96	0
TAP	72	192	1
HLD	73	0	6	96
HLD	73	0	7	96
TAP	73	192	0
TAP	73	192	5
HLD	74	0	0	96
HLD	74	0	1	96
TAP	74	192	2
TAP	74	192	7
HLD	75	0	2	96
HLD	75	0	3	96
TAP	75	192	1
TAP	75	192	4
HLD	76	0	4	96
HLD	76	0	5	96
TAP	76	192	3
TAP	76	192	6
STR	77	0	6
SXR	77	0	6	96	336	3
STR	77	0	7
SXL	77	0	7	96	336	2
TAP	78	192	3
TAP	78	192	4
STR	79	0	3
SCL	79	0	3	96	144	0
STR	79	0	4
SCR	79	0	4	96	144	7
TAP	80	0	1
TAP	80	96	7
TAP	80	192	0
TAP	80	288	6
STR	81	0	0
SXL	81	0	0	96	288	3
STR	81	0	7
SXR	81	0	7	96	288	4

T_REC_TAP	207
T_REC_BRK	9
T_REC_XTP	0
T_REC_HLD	28
T_REC_XHO	0
T_REC_STR	30
T_REC_BST	0
T_REC_XST	0
T_REC_TTP	0
T_REC_THO	0
T_REC_SLD	30
T_REC_ALL	304
T_NUM_TAP	237
T_NUM_BRK	9
T_NUM_HLD	28
T_NUM_SLD	30
T_NUM_ALL	304
T_JUDGE_TAP	246
T_JUDGE_HLD	64
T_JUDGE_SLD	30
T_JUDGE_ALL	340
TTM_EACHPAIRS	75
TTM_SCR_TAP	118500
TTM_SCR_BRK	23400
TTM_SCR_HLD	28000
TTM_SCR_SLD	45000
TTM_SCR_ALL	214900
TTM_SCR_S	207600
TTM_SCR_SS	214000
TTM_RAT_ACV	10042

