VERSION	0.00.00	1.03.00
FES_MODE	0
BPM_DEF	152.000	152.000	152.000	152.000
MET_DEF	4	4
RESOLUTION	384
CLK_DEF	384
COMPATIBLE_CODE	MA2

BPM	0	0	152.000
MET	0	0	4	4

TAP	5	0	4
TAP	5	192	4
TAP	6	0	5
TAP	6	192	5
TAP	7	0	6
TAP	7	192	6
TAP	8	0	7
BRK	8	192	7
TAP	9	0	0
TAP	9	192	0
TAP	10	0	1
TAP	10	96	1
TAP	10	192	1
TAP	11	0	2
TAP	11	192	2
HLD	12	0	3	192
TAP	13	0	4
TAP	13	192	4
TAP	14	0	5
TAP	14	96	5
TAP	14	192	5
TAP	15	0	6
TAP	15	192	6
HLD	16	0	7	192
TAP	17	0	0
TAP	17	192	0
TAP	18	0	7
TAP	18	192	7
TAP	19	0	6
TAP	19	192	6
TAP	20	0	5
TAP	20	96	5
TAP	20	192	4
TAP	20	192	5
TAP	21	0	3
TAP	21	192	3
TAP	22	0	2
TAP	22	192	2
TAP	23	0	1
TAP	23	192	1
TAP	24	0	0
TAP	24	96	0
BRK	24	192	0
BRK	24	192	7
STR	25	0	0
SI_	25	0	0	96	288	3
STR	27	0	7
SI_	27	0	7	96	288	4
STR	29	0	3
SI_	29	0	3	96	288	0
STR	31	0	4
SI_	31	0	4	96	288	7
TAP	33	0	0
TAP	33	192	0
TAP	34	0	1
TAP	34	96	1
TAP	34	192	1
TAP	35	0	2
TAP	35	192	2
TAP	36	0	3
TAP	36	96	3
TAP	36	192	3
TAP	36	192	4
TAP	37	0	4
TAP	37	192	4
TAP	38	0	5
TAP	38	192	5
TAP	39	0	6
TAP	39	96	6
TAP	39	192	6
TAP	40	0	0
TAP	40	0	7
TAP	40	96	0
TAP	40	96	7
TAP	40	192	0
TAP	40	192	7
TAP	41	0	7
TAP	41	192	7
TAP	42	0	6
TAP	42	96	6
TAP	42	192	6
TAP	43	0	5
TAP	43	192	5
TAP	44	0	4
TAP	44	96	4
TAP	44	192	3
TAP	44	192	4
TAP	45	0	2
TAP	45	0	3
TAP	45	192	2
TAP	45	192	3
TAP	46	0	4
TAP	46	0	5
TAP	46	192	4
TAP	46	192	5
TAP	47	0	6
TAP	47	0	7
TAP	47	192	6
TAP	47	192	7
TAP	48	0	0
TAP	48	0	1
TAP	48	96	0
TAP	48	96	1
TAP	48	192	0
TAP	48	192	1
BRK	49	0	7
TAP	49	192	7
TAP	50	0	6
TAP	50	192	6
TAP	51	0	5
TAP	51	192	5
TAP	52	0	4
TAP	52	96	4
TAP	52	192	3
TAP	52	192	4
TAP	53	0	3
TAP	53	96	3
TAP	53	192	3
TAP	54	0	2
TAP	54	96	2
TAP	54	192	2
TAP	55	0	1
TAP	55	96	1
TAP	55	192	0
TAP	55	288	0
TAP	56	0	6
TAP	56	0	7
TAP	56	96	6
TAP	56	96	7
TAP	56	192	6
TAP	56	192	7
TAP	57	0	5
TAP	57	192	6
TAP	58	0	7
TAP	58	192	0
STR	59	0	1
SI_	59	0	1	96	288	5
TAP	61	0	4
TAP	61	96	4
TAP	61	192	4
TAP	62	0	5
TAP	62	96	5
TAP	62	192	5
TAP	63	0	6
TAP	63	96	6
TAP	63	192	7
TAP	63	288	7
TAP	64	0	0
TAP	64	0	1
TAP	64	96	0
TAP	64	96	1
TAP	64	192	0
TAP	64	192	1
TAP	65	0	2
TAP	65	0	3
TAP	65	192	2
TAP	65	192	3
TAP	66	0	4
TAP	66	0	5
TAP	66	192	4
TAP	66	192	5
STR	67	0	6
SI_	67	0	6	96	288	2
TAP	69	0	3
TAP	69	192	3
TAP	70	0	2
TAP	70	192	2
TAP	71	0	1
TAP	71	192	1
TAP	72	0	0
TAP	72	192	0
TAP	73	0	7
TAP	73	192	7
TAP	74	0	6
TAP	74	96	6
TAP	74	192	6
TAP	74	192	7
TAP	75	0	5
TAP	75	192	5
TAP	76	0	4
TAP	76	96	4
TAP	76	192	3
TAP	76	192	4
STR	77	0	3
SI_	77	0	3	96	288	0
STR	79	0	4
SI_	79	0	4	96	288	7
HLD	81	0	1	384
HLD	81	0	6	384

T_REC_TAP	165
T_REC_BRK	4
T_REC_XTP	0
T_REC_HLD	4
T_REC_XHO	0
T_REC_STR	8
T_REC_BST	0
T_REC_XST	0
T_REC_TTP	0
T_REC_THO	0
T_REC_SLD	8
T_REC_ALL	189
T_NUM_TAP	173
T_NUM_BRK	4
T_NUM_HLD	4
T_NUM_SLD	8
T_NUM_ALL	189
T_JUDGE_TAP	177
T_JUDGE_HLD	24
T_JUDGE_SLD	8
T_JUDGE_ALL	209
TTM_EACHPAIRS	30
TTM_SCR_TAP	86500
TTM_SCR_BRK	10400
TTM_SCR_HLD	4000
TTM_SCR_SLD	12000
TTM_SCR_ALL	112900
TTM_SCR_S	109150
TTM_SCR_SS	112500
TTM_RAT_ACV	10035

