VERSION	0.00.00	1.03.00
FES_MODE	0
BPM_DEF	131.000	131.000	131.000	131.000
MET_DEF	4	4
RESOLUTION	384
CLK_DEF	384
COMPATIBLE_CODE	MA2

BPM	0	0	131.000
MET	0	0	4	4

HLD	1	0	3	384
TAP	1	96	4
TAP	1	288	2
HLD	2	0	4	384
TAP	2	96	3
TAP	2	288	5
HLD	3	0	3	192
TAP	3	96	2
HLD	3	192	4	192
TAP	3	288	5
TAP	4	0	3
TAP	4	48	3
TAP	4	48	4
TAP	4	96	2
TAP	4	96	5
TAP	4	144	1
TAP	4	144	6
STR	4	192	0
SI_	4	192	0	96	48	4
STR	4	192	7
SI_	4	192	7	96	48	3
BRK	4	288	0
BRK	4	288	7
TAP	5	0	1
TAP	5	48	1
TAP	5	96	3
TAP	5	144	3
TAP	5	192	4
TAP	5	240	4
TAP	5	264	3
TAP	5	312	3
TAP	5	336	4
TAP	6	0	6
TAP	6	48	6
TAP	6	96	4
TAP	6	144	4
TAP	6	192	3
TAP	6	240	3
TAP	6	264	4
TAP	6	312	4
TAP	6	336	3
TAP	7	0	2
TAP	7	48	2
TAP	7	96	4
TAP	7	144	4
TAP	7	192	6
TAP	7	240	6
TAP	7	264	5
TAP	7	312	5
TAP	7	336	6
TAP	8	0	5
TAP	8	48	5
TAP	8	96	3
TAP	8	144	3
TAP	8	192	1
TAP	8	240	1
TAP	8	264	2
TAP	8	312	2
TAP	8	336	1
TAP	9	0	3
HLD	9	0	4	96
TAP	9	96	6
HLD	9	192	3	96
TAP	9	192	4
STR	9	288	1
SI_	9	288	1	96	48	5
STR	10	0	0
SI_	10	0	0	96	48	4
STR	10	96	7
SI_	10	96	7	96	48	3
STR	10	192	6
SI_	10	192	6	96	48	2
TAP	10	288	5
HLD	11	0	3	96
TAP	11	0	4
TAP	11	96	1
TAP	11	192	3
HLD	11	192	4	96
STR	11	288	6
SI_	11	288	6	96	48	2
STR	12	0	1
SI_	12	0	1	96	48	5
TAP	12	96	2
TAP	12	192	4
TAP	12	208	3
TAP	12	224	4
TAP	12	240	3
TAP	12	264	5
TAP	12	288	2
TAP	12	312	6
TAP	12	336	1
TAP	12	360	7
HLD	13	0	0	48
TAP	13	48	5
HLD	13	96	0	48
TAP	13	96	6
TAP	13	144	7
TAP	13	168	7
HLD	13	192	0	48
TAP	13	240	6
HLD	13	288	0	48
TAP	13	288	5
TAP	13	336	4
HLD	14	0	2	48
TAP	14	0	5
TAP	14	48	6
HLD	14	96	2	48
TAP	14	96	7
TAP	14	144	0
TAP	14	168	0
HLD	14	192	2	48
TAP	14	240	7
HLD	14	288	2	48
TAP	14	288	6
TAP	14	336	5
TAP	15	0	3
HLD	15	0	4	48
TAP	15	48	2
TAP	15	96	1
HLD	15	96	4	48
TAP	15	144	0
TAP	15	168	0
HLD	15	192	4	48
TAP	15	240	1
TAP	15	288	2
HLD	15	288	4	48
TAP	15	336	3
TAP	16	0	2
HLD	16	0	6	48
TAP	16	48	1
TAP	16	96	0
HLD	16	96	6	48
TAP	16	144	7
TAP	16	168	7
HLD	16	192	6	48
TAP	16	240	0
TAP	16	288	1
HLD	16	288	6	48
TAP	16	336	2
TAP	17	0	3
TAP	17	0	4
TAP	17	48	4
TAP	17	96	3
TAP	17	144	2
TAP	17	144	5
TAP	17	240	2
TAP	17	240	6
TAP	17	288	1
TAP	17	336	0
HLD	17	336	7	144
TAP	18	48	0
STR	18	96	1
SI_	18	96	1	96	48	5
STR	18	192	7
SI_	18	192	7	96	48	3
TAP	18	288	0
TAP	18	336	0
TAP	19	0	1
TAP	19	48	2
TAP	19	96	3
HLD	19	144	4	96
TAP	19	240	6
TAP	19	288	5
TAP	19	336	4
TAP	20	0	3
TAP	20	48	4
TAP	20	96	2
HLD	20	96	5	96
HLD	20	192	4	96
HLD	20	288	3	96
STR	21	0	2
SI_	21	0	2	96	48	7
STR	21	192	2
SI_	21	192	2	96	48	7
TAP	21	288	3
TAP	21	336	4
STR	22	0	5
SI_	22	0	5	96	48	0
TAP	22	48	2
TAP	22	96	3
TAP	22	144	4
STR	22	192	5
SI_	22	192	5	96	48	0
TAP	22	288	4
TAP	23	0	4
TAP	23	0	5
TAP	23	48	2
TAP	23	48	3
TAP	23	96	0
TAP	23	96	1
TAP	23	144	6
TAP	23	144	7
HLD	23	192	4	72
TAP	23	192	5
HLD	23	264	3	72
STR	23	336	2
SCR	23	336	2	96	48	5
STR	24	48	5
SCL	24	48	5	96	48	2
TAP	24	144	2
TAP	24	240	0
TAP	24	240	7
STR	24	288	1
SI_	24	288	1	96	48	5
STR	24	288	2
SI_	24	288	2	96	48	7
BRK	25	0	1
BRK	25	0	2
TAP	25	96	0
TAP	25	96	6
TAP	25	144	1
TAP	25	144	7
HLD	25	192	0	48
HLD	25	192	2	48
HLD	25	264	1	48
HLD	25	264	3	48
TAP	25	336	0
TAP	25	336	2
TAP	26	0	7
TAP	26	48	0
TAP	26	48	6
TAP	26	96	5
TAP	26	144	4
TAP	26	144	6
TAP	26	192	3
TAP	26	240	2
HLD	26	240	4	72
HLD	26	312	3	72
TAP	27	0	1
TAP	27	48	0
TAP	27	48	2
TAP	27	96	1
TAP	27	96	7
TAP	27	144	0
TAP	27	144	6
HLD	27	192	5	48
HLD	27	192	7	48
HLD	27	264	4	48
HLD	27	264	6	48
TAP	27	336	5
TAP	27	336	7
TAP	28	0	0
TAP	28	48	1
TAP	28	48	7
TAP	28	96	2
TAP	28	144	1
TAP	28	144	3
HLD	28	192	0	48
HLD	28	192	2	48
HLD	28	264	5	48
HLD	28	264	7	48
TAP	28	336	1
TAP	28	336	6
TAP	29	0	3
TAP	29	0	4
STR	29	96	3
SCL	29	96	3	96	48	0
STR	29	96	4
SCR	29	96	4	96	48	7
TAP	29	144	0
TAP	29	144	7
TAP	29	192	3
TAP	29	192	4
STR	29	288	3
SCL	29	288	3	96	48	0
STR	29	288	4
SCR	29	288	4	96	48	7
TAP	29	336	0
TAP	29	336	7
TAP	30	0	3
TAP	30	0	4
STR	30	96	3
SCL	30	96	3	96	48	0
STR	30	96	4
SCR	30	96	4	96	48	7
STR	30	144	0
SXL	30	144	0	96	96	3
STR	30	144	7
SXR	30	144	7	96	96	4
TAP	30	192	3
TAP	30	192	4
HLD	31	0	2	48
HLD	31	48	1	48
HLD	31	96	3	48
HLD	31	144	0	48
HLD	31	192	4	72
HLD	31	264	6	72
TAP	31	336	7
HLD	32	0	5	48
HLD	32	48	6	48
HLD	32	96	4	48
HLD	32	144	7	48
HLD	32	192	3	72
HLD	32	264	1	72
TAP	32	336	0
TAP	33	0	2
TAP	33	48	3
TAP	33	96	2
TAP	33	96	4
TAP	33	144	5
HLD	33	192	2	72
TAP	33	192	6
TAP	33	264	3
TAP	33	288	2
TAP	33	336	1
TAP	33	336	4
TAP	34	0	5
TAP	34	48	4
TAP	34	96	3
TAP	34	96	5
TAP	34	144	2
TAP	34	192	1
HLD	34	192	5	72
TAP	34	264	4
TAP	34	288	5
TAP	34	336	3
TAP	34	336	6
HLD	35	0	0	48
TAP	35	0	7
TAP	35	48	2
TAP	35	96	0
HLD	35	96	7	48
TAP	35	144	5
HLD	35	192	0	48
TAP	35	192	7
TAP	35	240	2
TAP	35	288	0
HLD	35	288	7	48
TAP	35	336	5
TAP	36	0	0
TAP	36	0	2
TAP	36	48	2
TAP	36	48	4
TAP	36	96	4
TAP	36	96	6
STR	36	144	0
SLL	36	144	0	96	48	4
TAP	36	144	6
TAP	36	192	0
STR	36	192	2
SI_	36	192	2	96	24	6
HLD	37	0	0	72
HLD	37	72	1	72
TAP	37	144	2
HLD	37	192	7	72
HLD	37	264	6	72
TAP	37	336	5
HLD	38	0	0	72
HLD	38	72	1	72
TAP	38	144	2
HLD	38	192	4	48
HLD	38	240	3	48
TAP	38	288	2
TAP	38	304	1
TAP	38	320	0
TAP	38	336	7
TAP	38	352	6
TAP	38	368	5
TAP	39	0	3
TAP	39	0	4
TAP	39	48	2
TAP	39	72	3
TAP	39	120	5
TAP	39	144	4
TAP	39	192	1
TAP	39	216	3
TAP	39	264	6
STR	39	288	4
SCL	39	288	4	96	48	1
STR	39	336	1
SCL	39	336	1	96	96	4
TAP	40	192	3
TAP	40	216	3
TAP	40	240	4
TAP	40	264	2
TAP	40	312	4
TAP	40	336	4
TAP	40	360	3
STR	41	0	5
SI_	41	0	5	96	48	0
TAP	41	144	4
STR	41	192	5
SI_	41	192	5	96	48	0
TAP	41	288	4
STR	42	0	2
SI_	42	0	2	96	48	7
TAP	42	144	3
STR	42	192	2
SI_	42	192	2	96	48	7
TAP	42	288	3
TAP	43	0	4
TAP	43	0	5
TAP	43	96	2
TAP	43	96	3
HLD	43	192	4	72
TAP	43	192	5
HLD	43	264	3	72
TAP	43	336	2
TAP	44	48	2
TAP	44	48	5
TAP	44	96	3
TAP	44	120	4
TAP	44	144	3
TAP	44	168	4
TAP	44	192	3
STR	44	288	5
SI_	44	288	5	96	48	0
STR	44	288	6
SI_	44	288	6	96	48	2
HLD	45	192	1	192
HLD	46	0	2	192
HLD	46	192	3	192
HLD	47	0	4	192
HLD	47	192	5	192
HLD	48	0	6	192
BRK	48	192	7
BRK	48	264	3
BRK	48	264	4
BRK	48	336	0
BRK	48	336	1
TAP	49	0	3
TAP	49	0	4
STR	49	96	3
SCL	49	96	3	96	48	0
STR	49	96	4
SCR	49	96	4	96	48	7
TAP	49	144	0
TAP	49	144	7
TAP	49	192	3
TAP	49	192	4
STR	49	288	3
SCL	49	288	3	96	48	0
STR	49	288	4
SCR	49	288	4	96	48	7
TAP	49	336	0
TAP	49	336	7
TAP	50	0	3
TAP	50	0	4
STR	50	96	3
SCL	50	96	3	96	48	0
STR	50	96	4
SCR	50	96	4	96	48	7
STR	50	144	0
SXL	50	144	0	96	96	3
STR	50	144	7
SXR	50	144	7	96	96	4
TAP	50	192	3
TAP	50	192	4
HLD	51	0	5	48
HLD	51	48	4	48
HLD	51	96	3	48
HLD	51	144	2	48
HLD	51	192	1	72
HLD	51	264	0	72
TAP	51	336	7
HLD	52	0	2	48
HLD	52	48	3	48
HLD	52	96	4	48
HLD	52	144	5	48
TAP	52	192	2
TAP	52	240	3
TAP	52	264	4
TAP	52	288	2
TAP	52	312	5
TAP	52	336	1
TAP	52	360	6
STR	53	0	0
SI_	53	0	0	96	48	4
STR	53	0	7
SI_	53	0	7	96	48	3
TAP	53	48	2
TAP	53	48	5
BRK	53	96	0
BRK	53	96	7
HLD	53	192	5	48
HLD	53	192	7	48
HLD	53	264	4	48
HLD	53	264	6	48
TAP	53	336	5
TAP	53	336	7
TAP	54	0	0
TAP	54	48	1
TAP	54	48	7
TAP	54	96	2
TAP	54	144	1
TAP	54	144	3
TAP	54	192	4
HLD	54	240	3	72
TAP	54	240	5
HLD	54	312	4	72
TAP	55	0	6
TAP	55	48	5
TAP	55	48	7
TAP	55	96	0
TAP	55	96	6
TAP	55	144	1
TAP	55	144	7
HLD	55	192	0	48
HLD	55	192	2	48
HLD	55	264	1	48
HLD	55	264	3	48
TAP	55	336	0
TAP	55	336	2
TAP	56	0	7
TAP	56	48	0
TAP	56	48	6
TAP	56	96	5
TAP	56	144	4
TAP	56	144	6
HLD	56	192	5	48
HLD	56	192	7	48
HLD	56	264	0	48
HLD	56	264	2	48
TAP	56	336	1
TAP	56	336	6
TAP	57	0	3
TAP	57	0	4
STR	57	96	0
SCR	57	96	0	96	48	3
STR	57	96	4
SCR	57	96	4	96	48	7
TAP	57	144	3
TAP	57	144	7
TAP	57	192	0
TAP	57	192	4
STR	57	288	3
SCL	57	288	3	96	48	0
STR	57	288	7
SCL	57	288	7	96	48	4
TAP	57	336	0
TAP	57	336	4
TAP	58	0	3
TAP	58	0	7
STR	58	96	0
SCR	58	96	0	96	48	3
STR	58	96	4
SCR	58	96	4	96	48	7
STR	58	144	3
SXR	58	144	3	96	96	0
STR	58	144	7
SXR	58	144	7	96	96	4
TAP	58	192	0
TAP	58	192	4
HLD	59	0	5	48
HLD	59	48	6	48
HLD	59	96	4	48
HLD	59	144	7	48
HLD	59	192	3	72
HLD	59	264	2	72
TAP	59	336	0
HLD	60	0	2	48
HLD	60	48	1	48
HLD	60	96	3	48
HLD	60	144	0	48
HLD	60	192	4	72
HLD	60	264	5	72
TAP	60	336	7
TAP	61	0	6
TAP	61	48	7
TAP	61	96	0
TAP	61	96	6
TAP	61	144	1
TAP	61	192	2
HLD	61	192	6	72
TAP	61	264	7
TAP	61	288	6
TAP	61	336	2
TAP	61	336	4
TAP	62	0	1
TAP	62	48	0
TAP	62	96	1
TAP	62	96	7
TAP	62	144	6
HLD	62	192	1	72
TAP	62	192	5
TAP	62	264	0
TAP	62	288	1
TAP	62	336	3
TAP	62	336	5
TAP	63	0	0
HLD	63	0	7	48
TAP	63	48	5
HLD	63	96	0	48
TAP	63	96	7
TAP	63	144	2
TAP	63	192	0
HLD	63	192	7	48
TAP	63	240	5
HLD	63	288	0	48
TAP	63	288	7
TAP	63	336	2
TAP	64	0	5
TAP	64	0	7
TAP	64	48	3
TAP	64	48	5
TAP	64	96	1
TAP	64	96	3
TAP	64	144	1
STR	64	144	7
SLR	64	144	7	96	48	3
STR	64	192	5
SI_	64	192	5	96	24	1
TAP	64	192	7
TAP	65	0	3
TAP	65	0	4
TAP	65	48	1
TAP	65	72	0
TAP	65	96	1
TAP	65	144	2
TAP	65	144	7
TAP	65	192	3
TAP	65	192	4
TAP	65	240	6
TAP	65	264	7
TAP	65	288	6
TAP	65	336	0
TAP	65	336	5
TAP	66	0	3
TAP	66	0	4
TAP	66	48	0
TAP	66	72	7
TAP	66	96	0
TAP	66	144	2
TAP	66	144	5
TAP	66	192	3
TAP	66	192	4
TAP	66	240	5
TAP	66	264	7
TAP	66	312	2
TAP	66	336	0
TAP	67	0	3
TAP	67	0	4
TAP	67	48	6
TAP	67	72	7
TAP	67	96	5
TAP	67	144	0
TAP	67	144	4
TAP	67	192	2
TAP	67	192	6
TAP	67	240	1
TAP	67	264	0
TAP	67	288	2
TAP	67	336	3
TAP	67	336	7
TAP	68	0	1
TAP	68	0	5
TAP	68	48	3
TAP	68	48	7
HLD	68	96	0	96
TAP	68	192	4
TAP	68	216	2
TAP	68	240	6
HLD	68	264	4	48
TAP	68	312	0
TAP	68	336	2
TAP	68	360	6
BRK	69	0	0

T_REC_TAP	410
T_REC_BRK	12
T_REC_XTP	0
T_REC_HLD	123
T_REC_XHO	0
T_REC_STR	56
T_REC_BST	0
T_REC_XST	0
T_REC_TTP	0
T_REC_THO	0
T_REC_SLD	56
T_REC_ALL	657
T_NUM_TAP	466
T_NUM_BRK	12
T_NUM_HLD	123
T_NUM_SLD	56
T_NUM_ALL	657
T_JUDGE_TAP	478
T_JUDGE_HLD	200
T_JUDGE_SLD	56
T_JUDGE_ALL	734
TTM_EACHPAIRS	153
TTM_SCR_TAP	233000
TTM_SCR_BRK	31200
TTM_SCR_HLD	123000
TTM_SCR_SLD	84000
TTM_SCR_ALL	471200
TTM_SCR_S	455900
TTM_SCR_SS	470000
TTM_RAT_ACV	10025

