VERSION	0.00.00	1.03.00
FES_MODE	0
BPM_DEF	131.000	131.000	131.000	131.000
MET_DEF	4	4
RESOLUTION	384
CLK_DEF	384
COMPATIBLE_CODE	MA2

BPM	0	0	131.000
MET	0	0	4	4

HLD	1	0	2	96
TAP	1	96	3
HLD	1	192	5	96
TAP	1	288	4
HLD	2	0	1	96
TAP	2	96	3
HLD	2	192	6	96
TAP	2	288	4
HLD	3	0	0	96
TAP	3	96	3
HLD	3	192	7	96
TAP	3	288	4
TAP	4	0	0
TAP	4	48	0
TAP	4	96	7
TAP	4	144	7
TAP	4	192	0
BRK	4	288	1
BRK	4	288	6
HLD	5	0	2	96
TAP	5	0	5
TAP	5	96	3
TAP	5	192	2
HLD	5	192	5	96
TAP	5	288	4
HLD	6	0	1	96
TAP	6	0	6
TAP	6	96	3
TAP	6	192	1
HLD	6	192	6	96
TAP	6	288	4
HLD	7	0	0	96
TAP	7	0	7
TAP	7	96	3
TAP	7	192	0
HLD	7	192	7	96
TAP	7	288	4
TAP	8	0	0
TAP	8	0	1
TAP	8	96	2
TAP	8	96	7
TAP	8	192	6
TAP	8	192	7
TAP	8	288	0
TAP	8	288	5
HLD	9	0	1	96
TAP	9	96	2
TAP	9	144	3
TAP	9	192	4
TAP	9	288	3
TAP	9	288	5
HLD	10	0	6	96
TAP	10	96	5
TAP	10	144	4
TAP	10	192	3
TAP	10	288	2
TAP	10	288	4
HLD	11	0	1	96
TAP	11	96	3
TAP	11	144	3
STR	11	192	2
SCL	11	192	2	96	48	0
STR	11	192	4
SCR	11	192	4	96	48	6
STR	12	0	7
SI_	12	0	7	96	48	3
TAP	12	192	1
TAP	12	192	5
TAP	12	288	0
TAP	12	288	7
HLD	13	0	6	96
TAP	13	0	7
TAP	13	96	5
TAP	13	144	4
TAP	13	192	3
TAP	13	288	2
TAP	13	288	4
TAP	14	0	0
HLD	14	0	1	96
TAP	14	96	2
TAP	14	144	3
TAP	14	192	4
TAP	14	288	3
TAP	14	288	5
HLD	15	0	6	96
TAP	15	0	7
TAP	15	96	4
TAP	15	144	4
STR	15	192	3
SCL	15	192	3	96	48	1
STR	15	192	5
SCR	15	192	5	96	48	7
STR	16	0	0
SSL	16	0	0	96	96	4
TAP	16	288	2
TAP	16	288	5
BRK	17	0	1
BRK	17	0	6
HLD	17	48	1	96
TAP	17	48	6
STR	17	144	2
SI_	17	144	2	96	48	5
TAP	17	240	0
TAP	17	288	0
TAP	18	0	1
TAP	18	0	6
TAP	18	48	1
HLD	18	48	6	96
STR	18	144	5
SI_	18	144	5	96	48	2
TAP	18	240	7
TAP	18	288	7
TAP	19	0	1
TAP	19	0	6
HLD	19	48	1	96
TAP	19	48	6
STR	19	144	2
SI_	19	144	2	96	48	5
TAP	19	240	0
TAP	19	288	0
TAP	20	0	1
TAP	20	0	6
TAP	20	48	1
HLD	20	48	6	96
STR	20	144	4
SF_	20	144	4	96	48	0
TAP	21	0	6
TAP	21	0	7
TAP	21	96	0
TAP	21	96	1
TAP	21	192	5
TAP	21	192	7
TAP	21	288	0
TAP	21	288	2
TAP	22	0	4
TAP	22	0	6
TAP	22	96	1
TAP	22	96	3
TAP	22	192	4
TAP	22	192	5
TAP	22	288	2
TAP	22	288	3
TAP	23	0	4
TAP	23	48	4
TAP	23	96	3
TAP	23	144	3
TAP	23	192	5
TAP	23	240	5
TAP	23	288	2
TAP	23	336	2
TAP	24	0	5
TAP	24	48	4
TAP	24	48	6
TAP	24	144	1
TAP	24	144	3
TAP	24	240	0
TAP	24	240	7
TAP	24	288	0
STR	24	288	7
SI_	24	288	7	96	48	3
TAP	25	96	0
TAP	25	96	1
TAP	25	144	2
HLD	25	192	3	72
TAP	25	192	6
HLD	25	264	4	72
TAP	25	336	5
TAP	26	0	4
TAP	26	48	3
TAP	26	96	2
TAP	26	144	1
STR	26	192	0
SI_	26	192	0	96	48	3
SI_	26	192	0	96	48	6
TAP	27	0	4
TAP	27	48	5
TAP	27	96	6
TAP	27	144	7
HLD	27	192	0	72
HLD	27	264	1	72
TAP	27	336	2
TAP	28	0	3
TAP	28	48	2
TAP	28	96	1
TAP	28	144	0
HLD	28	192	7	72
HLD	28	264	6	72
TAP	28	336	5
TAP	29	0	4
HLD	29	0	5	96
TAP	29	96	4
TAP	29	144	3
TAP	29	144	6
HLD	29	192	2	96
TAP	29	192	7
TAP	29	288	3
TAP	29	336	1
TAP	29	336	4
TAP	30	0	0
HLD	30	0	5	96
TAP	30	96	6
TAP	30	144	4
TAP	30	144	7
STR	30	192	0
SI_	30	192	0	96	48	3
STR	30	192	3
SI_	30	192	3	96	48	6
TAP	31	0	7
TAP	31	48	7
TAP	31	96	0
TAP	31	144	0
HLD	31	192	7	72
HLD	31	264	6	72
TAP	31	336	5
TAP	32	0	5
TAP	32	48	4
TAP	32	96	3
TAP	32	144	2
STR	32	192	1
SI_	32	192	1	96	48	4
STR	32	192	4
SI_	32	192	4	96	48	7
TAP	33	0	0
TAP	33	48	1
TAP	33	96	2
TAP	33	144	3
TAP	33	192	4
TAP	33	192	5
TAP	33	288	3
TAP	33	288	6
TAP	34	0	7
TAP	34	48	6
TAP	34	96	5
TAP	34	144	4
TAP	34	192	2
TAP	34	192	3
TAP	34	288	1
TAP	34	288	4
TAP	35	0	2
TAP	35	48	3
TAP	35	96	2
TAP	35	144	1
TAP	35	144	4
TAP	35	192	5
TAP	35	240	4
TAP	35	288	5
TAP	35	336	3
TAP	35	336	6
TAP	36	0	2
TAP	36	0	7
TAP	36	48	2
TAP	36	48	7
TAP	36	96	0
TAP	36	96	1
TAP	36	144	0
TAP	36	144	1
STR	36	192	0
SI_	36	192	0	96	48	4
STR	36	192	1
SI_	36	192	1	96	48	4
HLD	37	0	6	72
HLD	37	72	5	72
TAP	37	144	4
HLD	37	192	1	72
HLD	37	264	2	72
TAP	37	336	3
HLD	38	0	4	72
HLD	38	72	5	72
TAP	38	144	6
TAP	38	192	6
TAP	38	192	7
TAP	38	240	0
TAP	38	240	5
TAP	38	288	1
TAP	38	288	4
TAP	38	336	2
TAP	38	336	3
HLD	39	0	0	48
HLD	39	0	1	48
HLD	39	72	2	48
HLD	39	72	7	48
HLD	39	144	3	48
HLD	39	144	6	48
HLD	39	216	4	48
HLD	39	216	5	48
TAP	39	288	3
TAP	39	288	4
TAP	39	336	2
TAP	39	336	5
STR	40	0	1
SLR	40	0	1	96	96	0
STR	40	0	6
SLL	40	0	6	96	96	7
TAP	40	288	1
TAP	40	288	6
TAP	41	0	2
TAP	41	0	5
HLD	41	48	2	96
TAP	41	48	5
STR	41	144	1
SCL	41	144	1	96	48	6
TAP	41	240	3
TAP	41	288	3
TAP	42	0	2
TAP	42	0	5
TAP	42	48	2
HLD	42	48	5	96
STR	42	144	6
SCR	42	144	6	96	48	1
TAP	42	240	4
TAP	42	288	4
TAP	43	0	0
TAP	43	48	0
TAP	43	96	7
TAP	43	144	7
TAP	43	192	1
TAP	43	240	1
TAP	43	288	6
TAP	43	336	6
TAP	44	0	1
TAP	44	48	0
TAP	44	48	2
TAP	44	144	5
TAP	44	144	7
TAP	44	240	0
STR	44	288	0
SI_	44	288	0	96	48	4
HLD	45	0	6	192
HLD	45	192	4	192
HLD	46	0	3	192
HLD	46	192	1	192
HLD	47	0	3	192
HLD	47	192	4	192
TAP	48	0	5
TAP	48	96	0
TAP	48	96	7
BRK	48	192	3
BRK	48	192	6
BRK	48	264	1
BRK	48	264	4
BRK	48	336	0
BRK	48	336	7
HLD	49	0	2	96
TAP	49	0	3
TAP	49	96	3
TAP	49	144	1
TAP	49	144	4
TAP	49	192	0
HLD	49	192	5	96
TAP	49	288	4
TAP	49	336	3
TAP	49	336	6
HLD	50	0	2	96
TAP	50	0	7
TAP	50	96	1
TAP	50	144	0
TAP	50	144	3
STR	50	192	4
SI_	50	192	4	96	48	1
STR	50	192	7
SI_	50	192	7	96	48	4
TAP	51	0	0
TAP	51	48	1
TAP	51	96	2
TAP	51	96	7
TAP	51	144	3
TAP	51	144	6
STR	51	192	3
SI_	51	192	3	96	48	0
STR	51	192	6
SI_	51	192	6	96	48	3
TAP	52	0	7
TAP	52	48	6
TAP	52	96	0
TAP	52	96	5
TAP	52	144	1
TAP	52	144	4
STR	52	192	1
SI_	52	192	1	96	48	6
SXL	52	192	1	96	48	3
TAP	52	192	4
BST	53	0	0
SUL	53	0	0	96	48	3
STR	53	192	6
SI_	53	192	6	96	48	1
TAP	54	0	3
TAP	54	48	4
TAP	54	96	5
TAP	54	144	6
STR	54	192	7
SI_	54	192	7	96	48	1
SI_	54	192	7	96	48	4
TAP	55	0	3
TAP	55	48	2
TAP	55	96	1
TAP	55	144	0
HLD	55	192	7	72
HLD	55	264	6	72
TAP	55	336	5
TAP	56	0	4
TAP	56	48	5
TAP	56	96	6
TAP	56	144	7
HLD	56	192	0	72
HLD	56	264	1	72
TAP	56	336	2
BRK	57	0	3
BRK	57	0	4
TAP	57	96	0
TAP	57	96	1
TAP	57	144	2
TAP	57	144	7
TAP	57	192	3
TAP	57	192	6
TAP	57	288	6
TAP	57	288	7
TAP	57	336	0
TAP	57	336	5
TAP	58	0	1
TAP	58	0	4
TAP	58	96	3
TAP	58	96	4
TAP	58	144	2
TAP	58	144	5
STR	58	192	1
SI_	58	192	1	96	48	5
STR	58	192	6
SI_	58	192	6	96	48	2
TAP	59	0	4
HLD	59	0	5	144
TAP	59	48	3
TAP	59	96	2
TAP	59	144	1
HLD	59	192	0	72
HLD	59	264	1	72
TAP	59	336	2
HLD	60	0	2	144
TAP	60	0	3
TAP	60	48	4
TAP	60	96	5
TAP	60	144	6
HLD	60	192	7	72
HLD	60	264	6	72
TAP	60	336	5
TAP	61	0	4
TAP	61	0	5
TAP	61	48	3
TAP	61	96	4
TAP	61	144	5
STR	61	192	6
SCL	61	192	6	96	48	4
STR	61	192	7
SCR	61	192	7	96	48	1
TAP	62	0	2
TAP	62	0	3
TAP	62	48	4
TAP	62	96	3
TAP	62	144	2
STR	62	192	0
SCL	62	192	0	96	48	6
STR	62	192	1
SCR	62	192	1	96	48	3
TAP	63	0	5
TAP	63	48	4
TAP	63	96	5
TAP	63	144	3
TAP	63	144	6
TAP	63	192	2
TAP	63	240	3
TAP	63	288	2
TAP	63	336	1
TAP	63	336	4
TAP	64	0	0
TAP	64	0	5
TAP	64	48	0
TAP	64	48	5
TAP	64	96	6
TAP	64	96	7
TAP	64	144	6
TAP	64	144	7
STR	64	192	6
SI_	64	192	6	96	48	3
STR	64	192	7
SI_	64	192	7	96	48	3
HLD	65	0	0	96
TAP	65	0	1
TAP	65	96	5
TAP	65	192	6
HLD	65	192	7	96
TAP	65	288	2
HLD	66	0	0	96
TAP	66	0	1
TAP	66	96	5
TAP	66	192	4
TAP	66	192	5
TAP	66	240	3
TAP	66	240	6
TAP	66	288	2
TAP	66	288	7
TAP	67	0	6
HLD	67	0	7	96
TAP	67	96	2
HLD	67	192	0	96
TAP	67	192	1
TAP	67	288	5
TAP	68	0	6
HLD	68	0	7	96
TAP	68	96	2
TAP	68	192	2
TAP	68	192	3
TAP	68	240	1
TAP	68	240	4
TAP	68	288	0
TAP	68	288	5
BST	69	0	2
SLL	69	0	2	96	672	4
BST	69	0	6
SLR	69	0	6	96	672	4

T_REC_TAP	347
T_REC_BRK	12
T_REC_XTP	0
T_REC_HLD	74
T_REC_XHO	0
T_REC_STR	38
T_REC_BST	3
T_REC_XST	0
T_REC_TTP	0
T_REC_THO	0
T_REC_SLD	44
T_REC_ALL	518
T_NUM_TAP	385
T_NUM_BRK	15
T_NUM_HLD	74
T_NUM_SLD	44
T_NUM_ALL	518
T_JUDGE_TAP	400
T_JUDGE_HLD	154
T_JUDGE_SLD	44
T_JUDGE_ALL	598
TTM_EACHPAIRS	135
TTM_SCR_TAP	192500
TTM_SCR_BRK	39000
TTM_SCR_HLD	74000
TTM_SCR_SLD	66000
TTM_SCR_ALL	371500
TTM_SCR_S	358900
TTM_SCR_SS	370000
TTM_RAT_ACV	10040

