VERSION	0.00.00	1.03.00
FES_MODE	0
BPM_DEF	131.000	131.000	131.000	131.000
MET_DEF	4	4
RESOLUTION	384
CLK_DEF	384
COMPATIBLE_CODE	MA2

BPM	0	0	131.000
MET	0	0	4	4

TAP	5	0	0
TAP	5	96	0
TAP	5	192	1
TAP	5	288	1
TAP	6	0	2
TAP	6	0	3
TAP	6	96	2
TAP	6	96	3
TAP	6	192	2
TAP	6	192	3
TAP	7	0	7
TAP	7	96	7
TAP	7	192	6
TAP	7	288	6
TAP	8	0	4
TAP	8	0	5
TAP	8	96	4
TAP	8	96	5
TAP	8	192	4
TAP	8	192	5
HLD	9	0	2	192
TAP	9	96	3
TAP	9	192	3
HLD	10	0	5	192
TAP	10	96	4
TAP	10	192	4
HLD	11	0	2	96
TAP	11	96	3
HLD	11	192	5	96
TAP	11	288	4
TAP	12	0	3
STR	12	96	3
SI_	12	96	3	96	96	0
HLD	13	0	6	192
TAP	13	96	7
TAP	13	192	7
HLD	14	0	1	192
TAP	14	96	0
TAP	14	192	0
HLD	15	0	6	96
TAP	15	96	7
HLD	15	192	1	96
TAP	15	288	0
TAP	16	0	7
STR	16	96	7
SCL	16	96	7	96	96	4
TAP	17	0	3
TAP	17	96	2
TAP	17	192	1
STR	17	288	0
SUL	17	288	0	96	192	3
TAP	19	0	4
TAP	19	96	5
TAP	19	192	6
STR	19	288	7
SSR	19	288	7	96	264	3
TAP	21	0	3
TAP	21	96	2
TAP	21	192	1
STR	21	288	0
SLR	21	288	0	96	192	5
TAP	23	0	6
TAP	23	96	6
TAP	23	96	7
TAP	23	192	1
TAP	23	288	0
TAP	23	288	1
BRK	24	0	0
BRK	24	0	7
STR	24	288	0
SI_	24	288	0	96	72	4
TAP	25	192	5
TAP	25	288	4
TAP	25	288	5
TAP	26	0	2
TAP	26	0	3
TAP	26	96	1
TAP	26	96	4
TAP	26	192	0
TAP	26	192	5
TAP	27	0	6
TAP	27	96	6
TAP	27	96	7
TAP	27	192	1
TAP	27	288	0
TAP	27	288	1
TAP	28	0	0
TAP	28	0	7
TAP	28	96	1
TAP	28	96	6
TAP	28	192	2
TAP	28	192	5
TAP	29	0	3
TAP	29	0	4
TAP	29	96	2
TAP	29	96	3
TAP	29	192	3
TAP	29	192	4
TAP	29	288	1
TAP	29	288	2
TAP	30	0	3
TAP	30	0	4
BST	30	96	0
SI_	30	96	0	96	96	5
BST	30	96	1
SI_	30	96	1	96	96	4
TAP	31	0	3
TAP	31	0	4
TAP	31	96	4
TAP	31	96	5
TAP	31	192	3
TAP	31	192	4
TAP	31	288	5
TAP	31	288	6
TAP	32	0	3
TAP	32	0	4
TAP	32	96	6
STR	32	96	7
SXL	32	96	7	96	192	2
TAP	33	96	4
HLD	33	192	3	96
HLD	33	192	5	96
TAP	34	0	3
TAP	34	96	3
HLD	34	192	2	96
HLD	34	192	4	96
TAP	35	0	4
TAP	35	96	3
TAP	35	96	5
TAP	35	192	3
TAP	35	288	2
TAP	35	288	4
TAP	36	0	3
TAP	36	0	5
TAP	36	96	2
TAP	36	96	6
STR	36	192	1
SI_	36	192	1	96	72	4
STR	36	192	7
SI_	36	192	7	96	72	4
HLD	37	192	3	96
HLD	37	192	4	96
TAP	38	0	5
TAP	38	96	6
HLD	38	192	0	96
HLD	38	192	7	96
TAP	39	0	1
TAP	39	96	2
HLD	39	192	3	96
HLD	39	192	4	96
TAP	40	0	2
TAP	40	0	5
TAP	40	96	1
TAP	40	96	6
TAP	40	192	0
TAP	40	192	7
TAP	41	0	7
TAP	41	96	6
TAP	41	192	5
STR	41	288	4
SLR	41	288	4	96	192	1
TAP	43	0	2
TAP	43	96	2
TAP	43	96	3
TAP	43	192	5
TAP	43	288	4
TAP	43	288	5
BRK	44	0	3
BRK	44	0	4
STR	44	288	6
SI_	44	288	6	96	48	4
HLD	45	192	2	192
HLD	46	0	3	192
TAP	46	192	4
HLD	47	0	5	192
HLD	47	192	4	192
TAP	48	0	3
BRK	48	192	2
BRK	48	192	5
TAP	49	0	3
TAP	49	0	4
TAP	49	96	2
TAP	49	96	3
TAP	49	192	3
TAP	49	192	4
TAP	49	288	1
TAP	49	288	2
TAP	50	0	3
TAP	50	0	4
BST	50	96	0
SI_	50	96	0	96	96	5
BST	50	96	1
SI_	50	96	1	96	96	4
TAP	51	0	3
TAP	51	0	4
TAP	51	96	4
TAP	51	96	5
TAP	51	192	3
TAP	51	192	4
TAP	51	288	5
TAP	51	288	6
TAP	52	0	3
TAP	52	0	4
TAP	52	96	6
STR	52	96	7
SCR	52	96	7	96	144	3
TAP	53	96	4
TAP	53	96	5
TAP	53	192	2
TAP	53	288	2
TAP	53	288	3
TAP	54	0	4
TAP	54	0	5
TAP	54	96	3
TAP	54	96	6
TAP	54	192	2
TAP	54	192	7
TAP	55	0	1
TAP	55	96	0
TAP	55	96	1
TAP	55	192	6
TAP	55	288	6
TAP	55	288	7
TAP	56	0	0
TAP	56	0	7
TAP	56	96	1
TAP	56	96	6
TAP	56	192	2
TAP	56	192	5
TAP	57	0	3
TAP	57	0	4
TAP	57	96	4
TAP	57	96	5
TAP	57	192	3
TAP	57	192	4
TAP	57	288	5
TAP	57	288	6
TAP	58	0	3
TAP	58	0	4
BST	58	96	6
SI_	58	96	6	96	96	3
BST	58	96	7
SI_	58	96	7	96	96	2
TAP	59	0	3
TAP	59	0	4
TAP	59	96	2
TAP	59	96	3
TAP	59	192	3
TAP	59	192	4
TAP	59	288	1
TAP	59	288	2
TAP	60	0	3
TAP	60	0	4
STR	60	96	0
SXR	60	96	0	96	192	5
TAP	60	96	1
TAP	61	96	2
TAP	61	96	3
HLD	61	192	1	96
HLD	61	192	4	96
TAP	62	0	4
TAP	62	0	5
TAP	62	96	4
TAP	62	96	5
HLD	62	192	3	96
HLD	62	192	6	96
TAP	63	0	3
TAP	63	96	2
TAP	63	96	4
TAP	63	192	4
TAP	63	288	3
TAP	63	288	5
TAP	64	0	2
TAP	64	0	4
TAP	64	96	1
TAP	64	96	5
STR	64	192	0
SI_	64	192	0	96	72	3
STR	64	192	6
SI_	64	192	6	96	72	3
TAP	65	192	5
TAP	65	288	5
TAP	66	0	6
TAP	66	0	7
TAP	66	96	6
TAP	66	96	7
TAP	66	192	0
TAP	66	192	5
TAP	67	0	3
TAP	67	96	3
TAP	67	192	2
TAP	67	288	2
TAP	68	0	0
TAP	68	0	1
TAP	68	96	0
TAP	68	96	1
TAP	68	192	2
TAP	68	192	7
TAP	69	0	0
TAP	69	0	7

T_REC_TAP	226
T_REC_BRK	6
T_REC_XTP	0
T_REC_HLD	26
T_REC_XHO	0
T_REC_STR	15
T_REC_BST	6
T_REC_XST	0
T_REC_TTP	0
T_REC_THO	0
T_REC_SLD	21
T_REC_ALL	300
T_NUM_TAP	241
T_NUM_BRK	12
T_NUM_HLD	26
T_NUM_SLD	21
T_NUM_ALL	300
T_JUDGE_TAP	253
T_JUDGE_HLD	68
T_JUDGE_SLD	21
T_JUDGE_ALL	342
TTM_EACHPAIRS	98
TTM_SCR_TAP	120500
TTM_SCR_BRK	31200
TTM_SCR_HLD	26000
TTM_SCR_SLD	31500
TTM_SCR_ALL	209200
TTM_SCR_S	201800
TTM_SCR_SS	208000
TTM_RAT_ACV	10057

