VERSION	0.00.00	1.03.00
FES_MODE	0
BPM_DEF	131.000	131.000	131.000	131.000
MET_DEF	4	4
RESOLUTION	384
CLK_DEF	384
COMPATIBLE_CODE	MA2

BPM	0	0	131.000
MET	0	0	4	4

TAP	5	0	0
TAP	5	192	0
HLD	6	0	0	192
TAP	7	0	7
TAP	7	192	7
HLD	8	0	7	192
TAP	9	0	0
TAP	9	192	0
TAP	10	0	1
TAP	10	192	1
TAP	11	0	2
TAP	11	192	2
TAP	12	0	3
TAP	12	96	3
TAP	12	192	3
TAP	13	0	4
TAP	13	192	4
TAP	14	0	5
TAP	14	192	5
TAP	15	0	6
TAP	15	192	6
TAP	16	0	7
TAP	16	96	7
TAP	16	192	7
STR	17	0	0
SI_	17	0	0	96	288	3
STR	19	0	7
SI_	19	0	7	96	288	4
STR	21	0	0
SI_	21	0	0	96	288	4
STR	23	0	7
SI_	23	0	7	96	288	3
TAP	25	0	0
TAP	25	96	0
TAP	25	192	0
TAP	26	0	1
TAP	26	96	1
TAP	26	192	1
TAP	27	0	2
TAP	27	96	2
TAP	27	192	2
TAP	28	0	3
TAP	28	96	3
TAP	28	192	3
TAP	28	192	4
TAP	29	0	4
TAP	29	96	4
TAP	29	192	4
TAP	30	0	5
TAP	30	96	5
TAP	30	192	5
TAP	31	0	6
TAP	31	96	6
TAP	31	192	6
TAP	32	0	7
TAP	32	96	7
TAP	32	192	0
TAP	32	192	7
TAP	33	0	7
TAP	33	192	6
TAP	34	0	5
TAP	34	192	4
TAP	35	0	3
TAP	35	192	2
HLD	36	0	0	192
HLD	36	0	1	192
TAP	37	0	7
TAP	37	192	7
TAP	38	0	6
TAP	38	96	6
TAP	38	192	6
TAP	39	0	5
TAP	39	192	5
TAP	40	0	4
TAP	40	96	4
TAP	40	192	4
HLD	41	0	3	192
HLD	42	0	2	192
HLD	43	0	1	192
TAP	44	0	0
TAP	44	96	0
BRK	44	192	0
STR	45	0	7
SI_	45	0	7	96	288	4
STR	47	0	0
SI_	47	0	0	96	288	3
TAP	49	0	0
TAP	49	96	0
TAP	49	192	0
TAP	50	0	1
TAP	50	96	1
TAP	50	192	1
TAP	51	0	2
TAP	51	96	2
TAP	51	192	2
TAP	52	0	3
TAP	52	0	4
TAP	52	96	3
TAP	52	96	4
TAP	52	192	3
TAP	52	192	4
TAP	53	0	5
TAP	53	96	5
TAP	53	192	4
TAP	53	192	5
TAP	54	0	6
TAP	54	96	6
TAP	54	192	6
TAP	54	192	7
TAP	55	0	1
TAP	55	96	1
TAP	55	192	0
TAP	55	192	1
TAP	56	0	2
TAP	56	96	2
TAP	56	192	2
TAP	56	192	3
TAP	57	0	5
TAP	57	96	4
TAP	57	192	4
TAP	57	192	5
TAP	58	0	2
TAP	58	96	3
TAP	58	192	2
TAP	58	192	3
TAP	59	0	1
TAP	59	96	0
TAP	59	192	0
TAP	59	192	1
TAP	60	0	6
TAP	60	96	7
TAP	60	192	6
TAP	60	192	7
TAP	61	0	0
TAP	61	0	1
TAP	61	192	0
TAP	61	192	1
TAP	62	0	2
TAP	62	0	3
TAP	62	192	2
TAP	62	192	3
TAP	63	0	4
TAP	63	0	5
TAP	63	192	4
TAP	63	192	5
HLD	64	0	6	192
HLD	64	0	7	192
HLD	65	0	0	192
HLD	66	0	7	192
HLD	67	0	0	192
HLD	67	0	7	192
TAP	68	0	0
TAP	68	0	7
TAP	68	96	0
TAP	68	96	7
TAP	68	192	0
TAP	68	192	7
BRK	69	0	1
BRK	69	0	6

T_REC_TAP	131
T_REC_BRK	3
T_REC_XTP	0
T_REC_HLD	13
T_REC_XHO	0
T_REC_STR	6
T_REC_BST	0
T_REC_XST	0
T_REC_TTP	0
T_REC_THO	0
T_REC_SLD	6
T_REC_ALL	159
T_NUM_TAP	137
T_NUM_BRK	3
T_NUM_HLD	13
T_NUM_SLD	6
T_NUM_ALL	159
T_JUDGE_TAP	140
T_JUDGE_HLD	52
T_JUDGE_SLD	6
T_JUDGE_ALL	198
TTM_EACHPAIRS	26
TTM_SCR_TAP	68500
TTM_SCR_BRK	7800
TTM_SCR_HLD	13000
TTM_SCR_SLD	9000
TTM_SCR_ALL	98300
TTM_SCR_S	95100
TTM_SCR_SS	98000
TTM_RAT_ACV	10030

