VERSION	0.00.00	1.03.00
FES_MODE	0
BPM_DEF	126.000	126.000	126.000	126.000
MET_DEF	4	4
RESOLUTION	384
CLK_DEF	384
COMPATIBLE_CODE	MA2

BPM	0	0	126.000
MET	0	0	4	4

STR	1	0	2
SXR	1	0	2	96	144	4
STR	1	0	5
SXL	1	0	5	96	144	3
TAP	1	288	2
TAP	1	288	5
TAP	2	0	0
TAP	2	0	6
STR	2	48	7
SCL	2	48	7	96	48	4
SCR	2	48	7	96	48	2
TAP	2	72	0
TAP	2	240	1
TAP	2	288	0
TAP	2	336	7
HLD	3	0	6	48
STR	3	48	5
SCL	3	48	5	96	48	2
TAP	3	72	6
TAP	3	240	4
TAP	3	288	5
TAP	3	336	6
TAP	4	0	1
TAP	4	0	7
STR	4	48	0
SCL	4	48	0	96	48	5
SCR	4	48	0	96	48	3
TAP	4	72	7
TAP	4	240	6
TAP	4	288	7
TAP	4	336	0
HLD	5	0	1	48
STR	5	48	2
SCR	5	48	2	96	48	5
TAP	5	72	1
TAP	5	288	0
TAP	5	288	7
TAP	5	336	0
TAP	5	336	7
HLD	6	0	1	144
TAP	6	144	2
TAP	6	192	3
TAP	6	240	0
TAP	6	288	1
TAP	6	336	7
STR	7	0	6
SI_	7	0	6	96	48	1
STR	7	144	2
SI_	7	144	2	96	48	5
TAP	7	288	7
STR	8	0	7
SCL	8	0	7	96	96	3
STR	8	96	3
SCL	8	96	3	96	96	7
STR	8	192	7
SCL	8	192	7	96	96	3
STR	8	288	3
SXL	8	288	3	96	96	3
SXR	8	288	3	96	96	3
TAP	9	192	1
TAP	9	192	6
TAP	9	240	7
TAP	9	264	0
BRK	9	336	2
BRK	9	336	5
STR	10	0	1
SCR	10	0	1	96	48	4
TAP	10	0	6
HLD	10	192	3	24
HLD	10	192	4	24
HLD	10	240	4	24
HLD	10	240	5	24
HLD	10	288	3	24
HLD	10	288	4	24
TAP	10	336	2
TAP	10	336	3
STR	11	0	0
SCL	11	0	0	96	48	5
TAP	11	0	1
TAP	11	96	3
STR	11	192	4
SUL	11	192	4	96	48	0
TAP	11	192	5
TAP	11	288	6
STR	12	0	6
SCL	12	0	6	96	48	3
TAP	12	0	7
TAP	12	96	1
TAP	12	192	3
TAP	12	192	4
TAP	12	240	2
TAP	12	240	3
TAP	12	288	3
TAP	12	288	4
TAP	12	336	4
TAP	12	336	5
TAP	13	0	6
STR	13	0	7
SCR	13	0	7	96	48	2
TAP	13	96	4
TAP	13	192	2
STR	13	192	3
SUR	13	192	3	96	48	7
TAP	13	288	1
STR	14	0	0
SUL	14	0	0	96	96	4
SUR	14	0	0	96	96	4
TAP	14	288	1
HLD	14	288	6	96
STR	15	0	5
SXR	15	0	5	96	144	2
HLD	15	288	1	96
TAP	15	288	6
STR	16	0	2
SXL	16	0	2	96	144	5
TAP	16	288	5
TAP	16	288	7
TAP	17	0	0
STR	17	0	2
SXL	17	0	2	96	144	3
SLL	17	0	2	96	144	3
TAP	17	288	1
TAP	17	288	6
HLD	18	0	2	288
STR	18	0	3
SCL	18	0	3	96	192	4
STR	19	0	4
SCR	19	0	4	96	192	3
HLD	19	0	5	288
TAP	20	0	2
STR	20	0	3
SCR	20	0	3	96	48	6
TAP	20	96	1
TAP	20	192	0
STR	20	288	6
SXL	20	288	6	96	192	1
TAP	20	288	7
TAP	21	288	0
TAP	21	288	1
HLD	22	0	2	72
HLD	22	72	4	72
TAP	22	144	3
STR	22	192	3
SCL	22	192	3	96	48	1
TAP	22	288	6
HLD	23	0	5	72
HLD	23	72	3	72
TAP	23	144	4
STR	23	192	4
SCR	23	192	4	96	48	6
TAP	23	288	1
HLD	24	0	1	72
HLD	24	72	3	72
TAP	24	144	2
STR	24	192	2
SCL	24	192	2	96	48	0
TAP	24	288	7
HLD	25	0	6	72
HLD	25	72	4	72
TAP	25	144	5
STR	25	192	5
SCR	25	192	5	96	48	7
TAP	25	288	0
HLD	26	0	1	72
HLD	26	72	3	72
TAP	26	144	2
STR	26	192	2
SCL	26	192	2	96	48	7
TAP	26	288	5
HLD	27	0	6	72
HLD	27	72	4	72
TAP	27	144	5
STR	27	192	5
SCR	27	192	5	96	48	0
TAP	27	288	2
STR	28	0	3
SCL	28	0	3	96	144	4
TAP	28	288	2
TAP	28	288	5
TAP	29	0	1
TAP	29	0	3
TAP	29	72	4
TAP	29	72	6
BRK	29	144	2
BRK	29	144	5
TAP	29	240	7
TAP	29	288	6
TAP	29	336	5
TAP	30	0	2
TAP	30	0	4
STR	30	48	3
SCL	30	48	3	96	48	0
SCR	30	48	3	96	48	6
TAP	30	72	4
TAP	30	240	6
TAP	30	288	7
TAP	30	336	0
HLD	31	0	1	48
STR	31	48	2
SCR	31	48	2	96	48	5
TAP	31	72	1
TAP	31	240	0
TAP	31	288	1
TAP	31	336	2
TAP	32	0	3
TAP	32	0	5
STR	32	48	4
SCL	32	48	4	96	48	1
SCR	32	48	4	96	48	7
TAP	32	72	3
TAP	32	240	1
TAP	32	288	0
TAP	32	336	7
HLD	33	0	6	48
STR	33	48	5
SCL	33	48	5	96	48	2
TAP	33	72	6
TAP	33	240	7
TAP	33	288	6
TAP	33	336	5
HLD	34	0	0	72
HLD	34	72	3	72
STR	34	144	4
SCL	34	144	4	96	48	1
TAP	34	240	5
TAP	34	288	6
TAP	34	336	7
HLD	35	0	7	72
HLD	35	72	4	72
STR	35	144	3
SCL	35	144	3	96	96	0
STR	35	240	0
SCL	35	240	0	96	96	5
STR	35	336	5
SCL	35	336	5	96	96	2
STR	36	48	2
SCL	36	48	2	96	96	7
TAP	36	144	7
TAP	36	240	4
TAP	36	288	3
TAP	36	288	4
BST	37	0	2
SXR	37	0	2	96	144	4
BST	37	0	5
SXL	37	0	5	96	144	3
TAP	37	288	2
TAP	37	288	5
TAP	38	0	1
TAP	38	0	6
TAP	38	96	2
TAP	38	96	3
TAP	38	144	1
TAP	38	144	4
TAP	38	240	7
TAP	38	288	0
TAP	38	336	1
HLD	39	0	2	72
HLD	39	72	3	72
HLD	39	144	4	96
TAP	39	240	0
TAP	39	288	7
TAP	39	336	6
HLD	40	0	5	72
HLD	40	72	4	72
HLD	40	144	3	96
TAP	40	240	7
TAP	40	288	0
TAP	40	336	1
HLD	41	0	2	72
HLD	41	72	3	72
HLD	41	144	4	96
TAP	41	240	0
TAP	41	288	7
TAP	41	336	6
HLD	42	0	3	48
HLD	42	0	4	48
TAP	42	96	1
TAP	42	96	6
TAP	42	192	1
TAP	42	216	3
TAP	42	240	2
TAP	42	264	4
TAP	42	288	3
TAP	42	312	5
TAP	42	336	4
TAP	42	360	6
BST	43	0	3
SXL	43	0	3	96	96	3
SXR	43	0	3	96	96	3
TAP	43	288	1
TAP	43	288	5
TAP	44	0	6
TAP	44	48	6
TAP	44	96	6
TAP	44	96	7
TAP	44	144	6
TAP	44	144	7
TAP	44	192	1
TAP	44	240	1
TAP	44	288	0
TAP	44	288	1
TAP	44	336	0
TAP	44	336	1
STR	45	0	7
SI_	45	0	7	96	48	3
TAP	45	48	7
STR	45	96	1
SI_	45	96	1	96	48	5
TAP	45	144	1
STR	45	192	6
SI_	45	192	6	96	48	2
TAP	45	240	6
BRK	45	288	0
BRK	45	336	0
HLD	46	0	7	144
TAP	46	144	5
HLD	46	192	5	144
TAP	46	336	4
HLD	47	0	4	144
TAP	47	144	2
HLD	47	192	2	96
HLD	47	288	3	96
TAP	47	336	1
HLD	48	0	0	144
TAP	48	144	2
HLD	48	192	2	144
TAP	48	336	3
HLD	49	0	3	144
TAP	49	144	5
HLD	49	192	5	96
HLD	49	288	4	96
TAP	49	336	6
STR	50	0	7
SUL	50	0	7	96	48	3
TAP	50	144	1
STR	50	192	0
SUR	50	192	0	96	48	4
TAP	50	288	6
BRK	51	0	0
BRK	51	0	7
TAP	51	240	6
TAP	51	288	0
TAP	51	336	2
TAP	52	0	3
TAP	52	0	5
STR	52	48	4
SV_	52	48	4	96	48	7
SLL	52	48	4	96	48	0
TAP	52	72	3
TAP	52	240	2
TAP	52	288	3
TAP	52	336	4
HLD	53	0	6	48
STR	53	48	5
SCR	53	48	5	96	48	1
TAP	53	72	6
TAP	53	240	1
TAP	53	288	7
TAP	53	336	5
TAP	54	0	2
TAP	54	0	4
STR	54	48	3
SCR	54	48	3	96	48	6
SV_	54	48	3	96	48	0
TAP	54	72	4
TAP	54	240	5
TAP	54	288	4
TAP	54	336	3
HLD	55	0	1	48
STR	55	48	2
SCL	55	48	2	96	48	6
TAP	55	72	1
TAP	55	240	6
TAP	55	288	0
TAP	55	336	2
TAP	56	0	3
TAP	56	0	5
STR	56	48	4
SCL	56	48	4	96	48	1
SCR	56	48	4	96	48	7
TAP	56	72	3
TAP	56	240	5
TAP	56	288	6
TAP	56	336	7
HLD	57	0	0	72
HLD	57	72	3	72
STR	57	144	4
SCR	57	144	4	96	96	7
STR	57	240	7
SCR	57	240	7	96	96	2
STR	57	336	2
SCR	57	336	2	96	96	5
STR	58	48	5
SCR	58	48	5	96	96	0
TAP	58	144	0
TAP	58	240	3
TAP	58	288	3
TAP	58	288	4
TAP	59	0	0
TAP	59	0	7
TAP	59	72	1
TAP	59	72	3
TAP	59	144	4
TAP	59	144	6
TAP	59	192	2
TAP	59	192	5
TAP	59	240	0
TAP	59	264	7
STR	59	336	2
SXR	59	336	2	96	336	4
STR	59	336	5
SXL	59	336	5	96	336	3
STR	61	96	3
SI_	61	96	3	96	48	0
STR	61	96	4
SI_	61	96	4	96	48	7
BRK	61	288	1
BRK	61	288	6
TAP	62	0	3
TAP	62	0	4
TAP	62	96	1
TAP	62	96	6
TAP	62	192	6
TAP	62	216	4
TAP	62	240	5
TAP	62	264	3
TAP	62	288	4
TAP	62	312	2
TAP	62	336	3
TAP	62	360	1
BST	63	0	4
SXL	63	0	4	96	96	4
SXR	63	0	4	96	96	4
TAP	63	288	2
TAP	63	288	6
STR	64	0	0
SCR	64	0	0	96	48	3
STR	64	0	7
SCL	64	0	7	96	48	4
TAP	64	192	2
TAP	64	240	2
TAP	64	240	3
TAP	64	288	5
TAP	64	336	4
TAP	64	336	5
TAP	65	0	3
TAP	65	0	4
STR	65	48	3
SI_	65	48	3	96	48	7
STR	65	48	4
SI_	65	48	4	96	48	0
TAP	65	288	1
TAP	65	288	6
STR	66	0	1
SXR	66	0	1	96	192	3
STR	66	0	4
SXL	66	0	4	96	192	2
STR	67	0	3
SXR	67	0	3	96	192	5
STR	67	0	6
SXL	67	0	6	96	192	4
STR	68	0	2
SXR	68	0	2	96	192	4
STR	68	0	5
SXL	68	0	5	96	192	3
TAP	69	0	2
TAP	69	0	5

T_REC_TAP	241
T_REC_BRK	10
T_REC_XTP	0
T_REC_HLD	56
T_REC_XHO	0
T_REC_STR	70
T_REC_BST	4
T_REC_XST	0
T_REC_TTP	0
T_REC_THO	0
T_REC_SLD	86
T_REC_ALL	467
T_NUM_TAP	311
T_NUM_BRK	14
T_NUM_HLD	56
T_NUM_SLD	86
T_NUM_ALL	467
T_JUDGE_TAP	325
T_JUDGE_HLD	113
T_JUDGE_SLD	86
T_JUDGE_ALL	524
TTM_EACHPAIRS	76
TTM_SCR_TAP	155500
TTM_SCR_BRK	36400
TTM_SCR_HLD	56000
TTM_SCR_SLD	129000
TTM_SCR_ALL	376900
TTM_SCR_S	364250
TTM_SCR_SS	375500
TTM_RAT_ACV	10037

