VERSION	0.00.00	1.03.00
FES_MODE	0
BPM_DEF	126.000	126.000	126.000	126.000
MET_DEF	4	4
RESOLUTION	384
CLK_DEF	384
COMPATIBLE_CODE	MA2

BPM	0	0	126.000
MET	0	0	4	4

STR	1	0	1
SCR	1	0	1	96	96	4
STR	1	0	5
SCR	1	0	5	96	96	0
TAP	1	288	1
TAP	1	288	5
TAP	2	0	2
TAP	2	96	4
TAP	2	192	5
TAP	2	240	5
TAP	2	288	3
TAP	2	288	6
TAP	3	0	5
TAP	3	96	3
TAP	3	192	2
TAP	3	240	2
TAP	3	288	1
TAP	3	288	4
TAP	4	0	1
TAP	4	96	3
TAP	4	192	5
TAP	4	240	5
TAP	4	288	4
TAP	4	288	6
TAP	5	0	6
TAP	5	96	4
TAP	5	192	2
TAP	5	240	2
TAP	5	288	1
TAP	5	288	3
HLD	6	0	0	288
TAP	6	96	7
TAP	6	192	6
TAP	6	288	5
HLD	7	0	4	288
TAP	7	96	3
TAP	7	192	2
TAP	7	288	1
STR	8	0	0
SF_	8	0	0	96	192	4
TAP	9	0	7
TAP	9	96	0
TAP	9	192	0
TAP	9	192	7
BRK	9	288	1
BRK	9	288	6
TAP	10	0	0
TAP	10	96	1
TAP	10	96	7
TAP	10	192	2
TAP	10	240	3
TAP	10	288	2
TAP	10	288	4
TAP	11	0	7
TAP	11	96	0
TAP	11	96	6
TAP	11	192	5
TAP	11	240	4
TAP	11	288	3
TAP	11	288	5
STR	12	0	1
SI_	12	0	1	96	48	4
TAP	12	96	6
STR	12	192	6
SI_	12	192	6	96	48	3
TAP	12	288	1
STR	13	0	1
SCR	13	0	1	96	48	4
TAP	13	96	6
STR	13	192	6
SCL	13	192	6	96	48	3
BRK	13	288	1
TAP	14	0	2
TAP	14	96	1
TAP	14	96	3
TAP	14	192	3
TAP	14	288	2
TAP	14	288	4
TAP	15	0	4
TAP	15	96	3
TAP	15	96	5
TAP	15	192	5
TAP	15	288	4
TAP	15	288	6
HLD	16	0	6	192
TAP	16	96	7
HLD	16	192	1	192
TAP	16	288	0
HLD	17	0	5	192
TAP	17	96	7
HLD	17	192	2	96
TAP	17	288	0
TAP	18	0	5
TAP	18	96	4
TAP	18	96	6
TAP	18	192	4
TAP	18	288	3
TAP	18	288	5
TAP	19	0	3
TAP	19	96	2
TAP	19	96	4
TAP	19	192	2
TAP	19	288	1
TAP	19	288	3
HLD	20	0	1	192
TAP	20	96	0
HLD	20	192	6	192
TAP	20	288	7
HLD	21	0	2	192
TAP	21	96	0
HLD	21	192	5	96
BRK	21	288	7
HLD	22	0	4	192
TAP	22	0	6
TAP	22	144	3
TAP	22	192	3
TAP	22	288	2
TAP	22	288	5
TAP	23	0	1
HLD	23	0	3	192
TAP	23	144	4
TAP	23	192	4
TAP	23	288	2
TAP	23	288	5
TAP	24	0	4
HLD	24	0	6	192
TAP	24	144	7
TAP	24	192	7
TAP	24	288	0
TAP	24	288	5
HLD	25	0	1	192
TAP	25	0	3
TAP	25	144	0
TAP	25	192	0
TAP	25	288	2
TAP	25	288	7
TAP	26	0	2
STR	26	0	3
SCR	26	0	3	96	96	6
TAP	26	144	0
TAP	26	192	0
TAP	26	288	1
TAP	26	288	7
STR	27	0	4
SCL	27	0	4	96	96	1
TAP	27	0	5
TAP	27	144	7
TAP	27	192	7
TAP	27	288	0
TAP	27	288	6
STR	28	0	1
SXL	28	0	1	96	192	2
STR	28	0	5
SXL	28	0	5	96	192	6
HLD	29	0	0	72
TAP	29	72	7
TAP	29	144	0
TAP	29	144	7
TAP	29	240	0
TAP	29	240	7
BRK	29	288	1
BRK	29	288	6
HLD	30	0	6	72
TAP	30	72	7
TAP	30	144	0
TAP	30	144	5
TAP	30	240	3
TAP	30	288	2
TAP	30	288	4
HLD	31	0	1	72
TAP	31	72	0
TAP	31	144	2
TAP	31	144	7
TAP	31	240	4
TAP	31	288	3
TAP	31	288	5
HLD	32	0	6	72
TAP	32	72	7
TAP	32	144	0
TAP	32	144	5
TAP	32	240	3
TAP	32	288	2
TAP	32	288	4
HLD	33	0	1	72
TAP	33	72	0
TAP	33	144	2
TAP	33	144	7
TAP	33	240	4
TAP	33	288	3
TAP	33	288	5
TAP	34	0	2
TAP	34	0	3
TAP	34	72	2
TAP	34	72	3
TAP	34	144	1
TAP	34	144	4
TAP	34	240	7
TAP	34	288	0
TAP	34	288	6
TAP	35	0	4
TAP	35	0	5
TAP	35	72	4
TAP	35	72	5
TAP	35	144	3
TAP	35	144	6
TAP	35	240	0
TAP	35	288	1
TAP	35	288	7
STR	36	0	3
SXR	36	0	3	96	288	0
STR	36	0	7
SXR	36	0	7	96	288	4
HLD	37	192	0	96
BRK	37	288	7
HLD	38	0	6	96
TAP	38	96	7
TAP	38	192	2
TAP	38	240	3
TAP	38	288	2
TAP	38	336	3
HLD	39	0	2	96
TAP	39	96	3
TAP	39	192	5
TAP	39	240	4
TAP	39	288	5
TAP	39	336	4
HLD	40	0	5	96
TAP	40	96	4
TAP	40	192	1
TAP	40	240	0
TAP	40	288	1
TAP	40	336	0
HLD	41	0	1	96
HLD	41	96	0	96
HLD	41	192	7	96
TAP	41	288	6
HLD	42	0	4	96
TAP	42	96	5
TAP	42	192	3
TAP	42	240	3
TAP	42	288	5
TAP	42	336	5
HLD	43	0	3	96
TAP	43	96	2
TAP	43	192	4
TAP	43	240	4
TAP	43	288	2
TAP	43	336	2
TAP	44	0	4
TAP	44	96	1
TAP	44	96	5
TAP	44	192	3
TAP	44	288	2
TAP	44	288	6
TAP	45	0	0
TAP	45	0	1
TAP	45	96	2
TAP	45	96	7
TAP	45	192	3
TAP	45	192	6
BRK	45	288	4
BRK	45	288	5
STR	46	0	5
SXL	46	0	5	96	192	0
STR	47	0	2
SXR	47	0	2	96	192	7
STR	48	0	6
SXR	48	0	6	96	192	3
STR	49	0	1
SXL	49	0	1	96	192	4
STR	50	0	3
SXR	50	0	3	96	192	0
STR	50	0	4
SXL	50	0	4	96	192	7
HLD	51	0	7	72
TAP	51	72	0
TAP	51	144	0
TAP	51	144	7
TAP	51	240	0
TAP	51	240	7
BRK	51	288	1
BRK	51	288	6
HLD	52	0	1	72
TAP	52	0	3
TAP	52	72	0
TAP	52	144	1
TAP	52	144	7
TAP	52	240	7
TAP	52	288	0
TAP	52	288	6
TAP	53	0	4
HLD	53	0	6	72
TAP	53	72	7
TAP	53	144	0
TAP	53	144	6
TAP	53	240	0
TAP	53	288	1
TAP	53	288	7
TAP	54	0	0
HLD	54	0	2	72
TAP	54	72	3
TAP	54	144	2
TAP	54	144	4
TAP	54	240	4
TAP	54	288	3
TAP	54	288	5
HLD	55	0	5	72
TAP	55	0	7
TAP	55	72	4
TAP	55	144	3
TAP	55	144	5
TAP	55	240	3
TAP	55	288	2
TAP	55	288	4
HLD	56	0	2	72
TAP	56	0	3
HLD	56	72	1	72
TAP	56	144	0
TAP	56	240	6
TAP	56	240	7
TAP	56	288	0
TAP	56	288	5
TAP	57	0	4
HLD	57	0	5	72
HLD	57	72	6	72
TAP	57	144	7
TAP	57	240	0
TAP	57	240	1
TAP	57	288	2
TAP	57	288	7
STR	58	0	0
SXL	58	0	0	96	288	3
STR	58	0	4
SXL	58	0	4	96	288	7
TAP	59	192	3
TAP	59	192	4
BRK	59	288	2
BST	59	288	5
SCR	59	288	5	96	192	2
STR	60	288	3
SUR	60	288	3	96	192	4
BRK	61	288	1
BRK	61	288	6
TAP	62	0	4
TAP	62	0	5
TAP	62	96	3
TAP	62	96	6
TAP	62	192	2
TAP	62	240	3
TAP	62	288	2
TAP	62	336	3
TAP	63	0	2
TAP	63	0	3
TAP	63	96	1
TAP	63	96	4
TAP	63	192	4
TAP	63	192	5
TAP	63	288	3
TAP	63	288	6
TAP	64	0	6
TAP	64	0	7
TAP	64	96	0
TAP	64	96	5
TAP	64	192	1
TAP	64	240	0
TAP	64	288	1
TAP	64	336	0
TAP	65	0	0
TAP	65	0	1
TAP	65	96	2
TAP	65	96	7
TAP	65	192	6
TAP	65	192	7
TAP	65	288	0
TAP	65	288	5
HLD	66	0	0	288
HLD	66	0	7	288
HLD	67	0	1	288
HLD	67	0	6	288
STR	68	0	2
SXR	68	0	2	96	288	4
STR	68	0	5
SXL	68	0	5	96	288	3

T_REC_TAP	278
T_REC_BRK	14
T_REC_XTP	0
T_REC_HLD	41
T_REC_XHO	0
T_REC_STR	24
T_REC_BST	1
T_REC_XST	0
T_REC_TTP	0
T_REC_THO	0
T_REC_SLD	25
T_REC_ALL	383
T_NUM_TAP	302
T_NUM_BRK	15
T_NUM_HLD	41
T_NUM_SLD	25
T_NUM_ALL	383
T_JUDGE_TAP	317
T_JUDGE_HLD	126
T_JUDGE_SLD	25
T_JUDGE_ALL	468
TTM_EACHPAIRS	100
TTM_SCR_TAP	151000
TTM_SCR_BRK	39000
TTM_SCR_HLD	41000
TTM_SCR_SLD	37500
TTM_SCR_ALL	268500
TTM_SCR_S	259000
TTM_SCR_SS	267000
TTM_RAT_ACV	10056

