VERSION	0.00.00	1.03.00
FES_MODE	0
BPM_DEF	126.000	126.000	126.000	126.000
MET_DEF	4	4
RESOLUTION	384
CLK_DEF	384
COMPATIBLE_CODE	MA2

BPM	0	0	126.000
MET	0	0	4	4

TAP	2	0	2
TAP	2	96	2
TAP	2	192	1
TAP	2	288	1
STR	3	0	0
SI_	3	0	0	96	96	4
TAP	4	0	5
TAP	4	96	5
TAP	4	192	6
TAP	4	288	6
STR	5	0	7
SI_	5	0	7	96	96	3
TAP	6	0	2
TAP	6	0	3
TAP	6	96	1
TAP	6	192	2
TAP	6	192	3
TAP	7	0	4
TAP	7	0	5
TAP	7	96	6
TAP	7	192	4
TAP	7	192	5
TAP	8	0	0
TAP	8	0	7
TAP	8	96	0
TAP	8	96	7
TAP	8	192	1
TAP	8	192	6
BST	8	288	2
SUL	8	288	2	96	192	4
BRK	8	288	5
TAP	10	0	4
TAP	10	96	5
HLD	10	192	6	96
TAP	11	0	3
TAP	11	96	2
HLD	11	192	1	96
TAP	12	0	5
TAP	12	96	6
HLD	12	192	7	96
TAP	13	0	2
TAP	13	96	1
HLD	13	192	0	96
HLD	14	0	7	192
HLD	14	192	6	192
STR	15	0	5
SCL	15	0	5	96	120	2
STR	16	0	1
SV_	16	0	1	96	120	4
TAP	17	0	5
TAP	17	96	4
TAP	17	192	3
TAP	17	192	6
HLD	18	0	0	192
HLD	18	192	1	192
STR	19	0	2
SCR	19	0	2	96	120	5
STR	20	0	6
SV_	20	0	6	96	120	3
TAP	21	0	2
TAP	21	96	3
TAP	21	192	1
TAP	21	192	4
HLD	22	0	1	192
TAP	22	96	7
TAP	22	192	0
HLD	23	0	6	192
TAP	23	96	0
TAP	23	192	7
HLD	24	0	2	192
TAP	24	96	0
TAP	24	192	1
TAP	25	0	0
TAP	25	0	7
TAP	25	96	0
TAP	25	96	7
TAP	25	192	1
TAP	25	192	6
TAP	26	0	3
TAP	26	96	4
TAP	26	192	2
TAP	26	192	5
TAP	27	0	7
TAP	27	96	0
TAP	27	192	1
TAP	27	192	6
STR	27	288	1
SV_	27	288	1	96	168	3
STR	27	288	6
SV_	27	288	6	96	168	4
HLD	29	0	3	144
HLD	29	0	4	144
TAP	30	0	2
TAP	30	96	1
TAP	30	96	3
TAP	30	192	5
TAP	30	288	4
TAP	30	288	6
STR	31	0	2
SCL	31	0	2	96	96	7
STR	31	0	3
SCR	31	0	3	96	96	6
TAP	32	0	6
TAP	32	96	5
TAP	32	96	7
TAP	32	192	1
TAP	32	288	0
TAP	32	288	2
STR	33	0	6
SI_	33	0	6	96	96	2
STR	33	0	7
SI_	33	0	7	96	96	3
TAP	34	0	2
TAP	34	96	1
TAP	34	96	3
HLD	34	192	1	96
HLD	34	192	3	96
TAP	35	0	5
TAP	35	96	4
TAP	35	96	6
HLD	35	192	4	96
HLD	35	192	6	96
TAP	36	0	0
TAP	36	0	7
TAP	36	96	0
TAP	36	96	7
TAP	36	192	1
TAP	36	192	6
BRK	36	288	2
BST	36	288	5
SUR	36	288	5	96	192	3
TAP	38	0	2
TAP	38	96	3
TAP	38	192	1
TAP	38	192	4
TAP	39	0	5
TAP	39	96	4
TAP	39	192	3
TAP	39	192	6
TAP	40	0	1
TAP	40	96	0
TAP	40	192	2
TAP	40	192	7
TAP	41	0	6
TAP	41	96	7
TAP	41	192	0
TAP	41	192	5
TAP	42	0	0
TAP	42	0	1
TAP	42	96	0
TAP	42	96	1
HLD	42	192	2	96
HLD	42	192	7	96
TAP	43	0	6
TAP	43	0	7
TAP	43	96	6
TAP	43	96	7
HLD	43	192	0	96
HLD	43	192	5	96
TAP	44	0	2
TAP	44	0	3
TAP	44	96	2
TAP	44	96	3
HLD	44	192	1	96
HLD	44	192	4	96
TAP	45	0	4
TAP	45	0	5
TAP	45	96	4
TAP	45	96	5
HLD	45	192	3	96
HLD	45	192	6	96
STR	46	0	2
SXR	46	0	2	96	384	7
STR	46	0	3
SXL	46	0	3	96	384	6
STR	48	0	0
SXR	48	0	0	96	384	5
STR	48	0	1
SXL	48	0	1	96	384	4
HLD	50	0	5	96
TAP	50	96	4
HLD	50	192	2	96
TAP	50	288	3
BRK	51	0	2
BRK	51	0	5
TAP	52	0	5
TAP	52	96	4
TAP	52	96	6
TAP	52	192	2
TAP	52	288	1
TAP	52	288	3
STR	53	0	4
SI_	53	0	4	96	96	1
STR	53	0	5
SI_	53	0	5	96	96	0
TAP	54	0	1
TAP	54	96	0
TAP	54	96	2
TAP	54	192	6
TAP	54	288	5
TAP	54	288	7
STR	55	0	0
SI_	55	0	0	96	96	5
STR	55	0	1
SI_	55	0	1	96	96	4
TAP	56	0	5
TAP	56	96	4
TAP	56	96	6
HLD	56	192	3	96
HLD	56	192	7	96
TAP	57	0	2
TAP	57	96	1
TAP	57	96	3
HLD	57	192	0	96
HLD	57	192	4	96
TAP	58	0	0
TAP	58	0	7
TAP	58	96	0
TAP	58	96	7
TAP	58	192	1
TAP	58	192	6
BST	58	288	2
SLL	58	288	2	96	192	3
BST	58	288	5
SLR	58	288	5	96	192	4
HLD	60	192	3	288
HLD	61	0	4	96
TAP	61	192	1
TAP	61	192	6
TAP	61	288	1
TAP	61	288	6
TAP	62	0	3
TAP	62	96	2
HLD	62	192	0	96
HLD	62	192	1	96
TAP	63	0	4
TAP	63	96	5
HLD	63	192	6	96
HLD	63	192	7	96
TAP	64	0	2
TAP	64	96	1
HLD	64	192	0	96
HLD	64	192	7	96
TAP	65	0	5
TAP	65	96	6
HLD	65	192	0	96
HLD	65	192	7	96
STR	66	0	0
SCR	66	0	0	96	144	3
STR	67	0	4
SCR	67	0	4	96	144	7
STR	68	0	0
SXL	68	0	0	96	288	3
STR	68	0	7
SXR	68	0	7	96	288	4

T_REC_TAP	154
T_REC_BRK	4
T_REC_XTP	0
T_REC_HLD	41
T_REC_XHO	0
T_REC_STR	24
T_REC_BST	4
T_REC_XST	0
T_REC_TTP	0
T_REC_THO	0
T_REC_SLD	28
T_REC_ALL	255
T_NUM_TAP	178
T_NUM_BRK	8
T_NUM_HLD	41
T_NUM_SLD	28
T_NUM_ALL	255
T_JUDGE_TAP	186
T_JUDGE_HLD	102
T_JUDGE_SLD	28
T_JUDGE_ALL	316
TTM_EACHPAIRS	71
TTM_SCR_TAP	89000
TTM_SCR_BRK	20800
TTM_SCR_HLD	41000
TTM_SCR_SLD	42000
TTM_SCR_ALL	192800
TTM_SCR_S	186250
TTM_SCR_SS	192000
TTM_RAT_ACV	10041

