VERSION	0.00.00	1.03.00
FES_MODE	0
BPM_DEF	126.000	126.000	126.000	126.000
MET_DEF	4	4
RESOLUTION	384
CLK_DEF	384
COMPATIBLE_CODE	MA2

BPM	0	0	126.000
MET	0	0	4	4

TAP	2	0	0
TAP	2	192	0
TAP	3	0	1
TAP	3	192	1
TAP	4	0	2
TAP	4	192	2
HLD	5	0	3	192
TAP	6	0	4
TAP	6	192	4
TAP	7	0	5
TAP	7	192	5
TAP	8	0	6
TAP	8	192	6
TAP	9	0	7
BRK	9	192	7
TAP	10	0	0
TAP	10	192	0
TAP	11	0	1
TAP	11	192	0
TAP	11	192	1
TAP	12	0	7
TAP	12	192	7
TAP	13	0	6
TAP	13	192	6
TAP	13	192	7
HLD	14	0	0	192
HLD	15	0	1	192
TAP	16	0	2
TAP	16	192	2
TAP	17	0	3
TAP	17	96	3
TAP	17	192	3
TAP	17	192	4
HLD	18	0	4	192
HLD	19	0	5	192
TAP	20	0	6
TAP	20	192	6
TAP	21	0	7
TAP	21	96	7
TAP	21	192	0
TAP	21	192	7
TAP	22	0	7
TAP	22	192	0
HLD	23	0	1	192
TAP	24	0	0
TAP	24	192	7
HLD	25	0	6	192
TAP	26	0	5
TAP	26	192	4
TAP	27	0	2
TAP	27	0	3
TAP	27	192	2
TAP	27	192	3
TAP	28	0	2
TAP	28	192	3
TAP	29	0	4
TAP	29	0	5
BRK	29	192	4
BRK	29	192	5
TAP	30	0	6
TAP	30	96	6
TAP	30	192	6
TAP	31	0	7
TAP	31	96	7
TAP	31	192	7
TAP	32	0	0
TAP	32	0	1
TAP	32	192	0
TAP	32	192	1
TAP	33	0	2
TAP	33	96	2
TAP	33	192	2
TAP	34	0	3
TAP	34	96	3
TAP	34	192	3
TAP	35	0	4
TAP	35	96	4
TAP	35	192	4
STR	36	0	3
SI_	36	0	3	96	288	0
TAP	38	0	7
TAP	38	192	7
TAP	39	0	6
TAP	39	96	6
TAP	39	192	6
TAP	40	0	5
TAP	40	192	5
TAP	41	0	4
TAP	41	96	4
TAP	41	192	3
TAP	41	192	4
TAP	42	0	3
TAP	42	192	3
TAP	43	0	2
TAP	43	96	2
TAP	43	192	2
TAP	44	0	1
TAP	44	192	1
TAP	45	0	0
TAP	45	96	0
TAP	45	192	0
TAP	45	192	7
STR	46	0	0
SI_	46	0	0	96	288	4
STR	48	0	7
SI_	48	0	7	96	288	3
HLD	50	0	2	192
BRK	51	0	1
TAP	52	0	0
TAP	52	96	0
TAP	52	192	1
TAP	52	288	1
TAP	53	0	2
TAP	53	96	2
TAP	53	192	2
TAP	53	192	3
TAP	54	0	4
TAP	54	96	4
TAP	54	192	5
TAP	54	288	5
TAP	55	0	6
TAP	55	96	6
TAP	55	192	6
TAP	55	192	7
TAP	56	0	0
TAP	56	96	7
TAP	56	192	0
TAP	57	0	0
TAP	57	0	7
TAP	57	96	0
TAP	57	96	7
TAP	57	192	0
TAP	57	192	7
TAP	58	0	6
TAP	58	192	6
TAP	59	0	7
TAP	59	96	7
BRK	59	192	7
HLD	60	0	6	192
HLD	60	0	7	192
HLD	61	0	0	192
HLD	61	0	1	192
TAP	62	0	7
TAP	62	96	7
TAP	62	192	7
TAP	63	0	6
TAP	63	96	6
TAP	63	192	6
TAP	63	192	7
TAP	64	0	5
TAP	64	96	5
TAP	64	192	5
TAP	65	0	4
TAP	65	96	4
TAP	65	192	3
TAP	65	192	4
HLD	66	0	3	192
HLD	67	0	4	192
STR	68	0	3
SI_	68	0	3	96	288	0
STR	68	0	4
SI_	68	0	4	96	288	7

T_REC_TAP	133
T_REC_BRK	5
T_REC_XTP	0
T_REC_HLD	14
T_REC_XHO	0
T_REC_STR	5
T_REC_BST	0
T_REC_XST	0
T_REC_TTP	0
T_REC_THO	0
T_REC_SLD	5
T_REC_ALL	162
T_NUM_TAP	138
T_NUM_BRK	5
T_NUM_HLD	14
T_NUM_SLD	5
T_NUM_ALL	162
T_JUDGE_TAP	143
T_JUDGE_HLD	56
T_JUDGE_SLD	5
T_JUDGE_ALL	204
TTM_EACHPAIRS	22
TTM_SCR_TAP	69000
TTM_SCR_BRK	13000
TTM_SCR_HLD	14000
TTM_SCR_SLD	7500
TTM_SCR_ALL	103500
TTM_SCR_S	99950
TTM_SCR_SS	103000
TTM_RAT_ACV	10048

