VERSION	0.00.00	1.03.00
FES_MODE	0
BPM_DEF	140.000	140.000	140.000	140.000
MET_DEF	4	4
RESOLUTION	384
CLK_DEF	384
COMPATIBLE_CODE	MA2

BPM	0	0	140.000
MET	0	0	4	4

BRK	2	288	0
TAP	3	0	4
TAP	3	0	5
TAP	3	48	2
TAP	3	72	1
TAP	3	72	3
TAP	3	120	5
TAP	3	144	4
TAP	3	144	6
TAP	3	192	0
TAP	3	240	1
TAP	3	240	7
TAP	3	288	2
TAP	3	288	6
TAP	4	0	2
TAP	4	0	3
TAP	4	48	5
TAP	4	72	4
TAP	4	72	6
TAP	4	120	2
TAP	4	144	1
TAP	4	144	3
STR	4	192	7
SF_	4	192	7	96	36	3
BRK	4	288	7
TAP	5	0	1
TAP	5	0	7
TAP	5	48	1
TAP	5	48	7
TAP	5	96	5
TAP	5	120	4
STR	5	144	5
SCR	5	144	5	96	72	2
SUR	5	144	5	96	72	2
TAP	5	168	4
TAP	6	0	0
TAP	6	0	6
TAP	6	48	0
TAP	6	48	6
TAP	6	96	2
TAP	6	120	3
STR	6	144	2
SCL	6	144	2	96	72	5
SUL	6	144	2	96	72	5
TAP	6	168	3
TAP	7	0	1
TAP	7	0	7
TAP	7	48	1
TAP	7	48	7
TAP	7	96	5
TAP	7	120	4
STR	7	144	5
SCR	7	144	5	96	60	0
TAP	7	168	4
TAP	7	240	3
STR	7	288	3
SI_	7	288	3	96	36	7
STR	8	0	4
SI_	8	0	4	96	36	0
STR	8	96	2
SI_	8	96	2	96	36	7
STR	8	192	5
SI_	8	192	5	96	36	0
BRK	8	288	3
TAP	9	0	2
TAP	9	0	7
TAP	9	48	2
TAP	9	48	7
TAP	9	96	1
TAP	9	120	4
STR	9	144	2
SCL	9	144	2	96	72	5
SUL	9	144	2	96	72	5
TAP	9	168	3
TAP	10	0	0
TAP	10	0	5
TAP	10	48	0
TAP	10	48	5
TAP	10	96	6
TAP	10	120	3
STR	10	144	5
SCR	10	144	5	96	72	2
SUR	10	144	5	96	72	2
TAP	10	168	4
TAP	11	0	2
TAP	11	0	7
TAP	11	48	2
TAP	11	48	7
TAP	11	96	1
TAP	11	120	4
STR	11	144	2
SCL	11	144	2	96	60	7
TAP	11	168	3
TAP	11	240	4
STR	11	288	4
SI_	11	288	4	96	36	0
STR	12	0	3
SI_	12	0	3	96	36	7
STR	12	96	5
SI_	12	96	5	96	36	0
STR	12	192	2
SI_	12	192	2	96	36	7
BRK	12	288	4
HLD	13	0	5	96
TAP	13	72	4
TAP	13	96	4
TAP	13	192	2
TAP	13	192	7
TAP	13	240	2
TAP	13	240	7
TAP	13	336	1
STR	14	0	1
SUL	14	0	1	96	96	4
STR	14	96	4
SUL	14	96	4	96	96	7
TAP	14	192	7
HLD	15	0	1	96
TAP	15	72	0
TAP	15	96	0
TAP	15	192	3
TAP	15	192	6
TAP	15	240	3
TAP	15	240	6
HLD	15	336	5	96
TAP	16	48	6
STR	16	96	7
SXR	16	96	7	96	156	3
TAP	16	144	0
TAP	16	192	1
HLD	17	0	2	96
TAP	17	72	3
TAP	17	96	3
TAP	17	144	1
TAP	17	144	4
HLD	17	192	0	72
HLD	17	192	5	72
TAP	17	336	6
TAP	17	360	7
STR	18	0	6
SUR	18	0	6	96	96	3
STR	18	96	3
SUR	18	96	3	96	96	0
TAP	18	192	0
TAP	18	336	6
TAP	18	336	7
HLD	19	0	6	72
HLD	19	0	7	72
HLD	19	96	0	72
HLD	19	96	1	72
TAP	19	192	3
TAP	19	192	4
TAP	19	240	3
TAP	19	240	4
TAP	19	336	6
TAP	19	336	7
STR	20	0	6
SI_	20	0	6	96	36	4
STR	20	0	7
SI_	20	0	7	96	36	3
STR	20	192	0
SI_	20	192	0	96	36	4
STR	20	192	1
SI_	20	192	1	96	36	3
HLD	21	0	0	288
HLD	21	0	6	96
TAP	21	144	3
HLD	21	192	3	96
HLD	22	0	1	96
HLD	22	0	7	192
TAP	22	144	4
TAP	22	192	4
BRK	22	288	2
BRK	22	288	5
TAP	23	0	0
TAP	23	0	7
TAP	23	96	0
TAP	23	96	4
TAP	23	144	0
TAP	23	144	4
TAP	23	192	1
TAP	23	192	5
TAP	23	240	1
TAP	23	240	5
TAP	23	288	2
TAP	23	288	6
TAP	23	336	2
TAP	23	336	6
STR	24	0	3
SXR	24	0	3	96	120	7
STR	24	0	7
SXR	24	0	7	96	120	3
BRK	24	288	1
BRK	24	288	5
HLD	25	0	6	72
HLD	25	0	7	72
HLD	25	96	2	72
HLD	25	96	3	72
STR	25	192	4
SCR	25	192	4	96	48	0
SUR	25	192	4	96	48	0
TAP	25	192	5
TAP	26	0	2
TAP	26	0	3
TAP	26	48	4
TAP	26	96	6
TAP	26	96	7
TAP	26	144	0
TAP	26	192	2
STR	26	192	3
SCL	26	192	3	96	48	7
SUL	26	192	3	96	48	7
HLD	27	0	5	96
TAP	27	96	4
TAP	27	144	3
TAP	27	192	2
TAP	27	192	5
TAP	27	240	4
TAP	27	264	3
STR	27	288	4
SI_	27	288	4	96	48	0
TAP	27	336	4
STR	28	0	3
SI_	28	0	3	96	48	7
STR	28	96	5
SXR	28	96	5	96	96	0
TAP	28	192	2
BRK	28	288	7
HLD	29	0	0	72
HLD	29	0	1	72
HLD	29	96	4	72
HLD	29	96	5	72
TAP	29	192	2
STR	29	192	3
SCL	29	192	3	96	48	7
SUL	29	192	3	96	48	7
TAP	30	0	4
TAP	30	0	6
TAP	30	48	1
TAP	30	96	0
TAP	30	96	2
TAP	30	144	4
TAP	30	192	3
STR	30	192	5
SXL	30	192	5	96	96	3
TAP	30	288	0
STR	31	0	2
SXR	31	0	2	96	96	4
TAP	31	96	7
TAP	31	192	5
TAP	31	288	2
STR	31	288	4
SI_	31	288	4	96	36	0
STR	32	0	3
SI_	32	0	3	96	36	7
TAP	32	0	4
TAP	32	96	3
STR	32	96	5
SI_	32	96	5	96	36	0
STR	32	192	2
SI_	32	192	2	96	36	7
TAP	32	192	5
TAP	32	288	2
TAP	32	288	4
HLD	33	0	0	72
HLD	33	0	6	72
HLD	33	96	2	72
HLD	33	96	3	72
STR	33	192	4
SCR	33	192	4	96	48	0
SUR	33	192	4	96	48	0
TAP	33	192	5
TAP	34	0	2
TAP	34	0	3
TAP	34	48	5
TAP	34	96	6
TAP	34	96	7
TAP	34	144	1
TAP	34	192	2
STR	34	192	3
SCL	34	192	3	96	48	7
SUL	34	192	3	96	48	7
TAP	35	0	4
TAP	35	0	6
TAP	35	48	4
TAP	35	96	2
TAP	35	96	4
TAP	35	144	2
TAP	35	192	0
TAP	35	192	2
TAP	35	240	1
TAP	35	264	0
STR	35	288	1
SCR	35	288	1	96	96	4
TAP	35	336	1
STR	36	0	4
SCR	36	0	4	96	96	7
STR	36	96	7
SUR	36	96	7	96	120	0
TAP	36	192	3
BRK	36	288	4
TAP	37	0	2
TAP	37	0	6
TAP	37	96	4
TAP	37	96	5
TAP	37	144	2
TAP	37	144	7
STR	37	192	4
SCR	37	192	4	96	48	0
SUR	37	192	4	96	48	0
TAP	37	192	5
TAP	38	0	1
TAP	38	0	3
TAP	38	48	7
TAP	38	96	0
TAP	38	96	6
TAP	38	144	3
STR	38	192	2
SXR	38	192	2	96	96	4
TAP	38	192	4
TAP	38	288	7
STR	39	0	5
SXL	39	0	5	96	96	3
TAP	39	96	0
TAP	39	192	2
STR	39	288	7
SI_	39	288	7	96	48	5
STR	40	0	0
SI_	40	0	0	96	48	4
TAP	40	0	7
TAP	40	96	0
STR	40	96	1
SI_	40	96	1	96	48	3
TAP	40	192	1
BRK	40	288	1
BRK	40	288	6
TAP	41	0	2
TAP	41	0	3
TAP	41	48	5
TAP	41	72	4
TAP	41	72	6
TAP	41	120	2
TAP	41	144	1
TAP	41	144	3
TAP	41	192	7
TAP	41	240	2
TAP	41	240	4
TAP	41	288	0
TAP	41	288	6
TAP	42	0	4
TAP	42	0	5
TAP	42	48	2
TAP	42	72	1
TAP	42	72	3
TAP	42	120	5
TAP	42	144	4
TAP	42	144	6
STR	42	192	0
SF_	42	192	0	96	48	4
BRK	42	288	0
HLD	43	0	6	96
TAP	43	48	7
HLD	43	96	1	96
TAP	43	144	0
TAP	43	192	6
TAP	43	240	2
TAP	43	264	3
TAP	43	288	2
TAP	43	336	1
TAP	43	336	4
HLD	44	0	5	48
HLD	44	48	6	48
HLD	44	96	7	48
HLD	44	144	0	48
STR	44	192	1
SCL	44	192	1	96	48	5
SUL	44	192	1	96	48	5
HLD	45	0	2	48
HLD	45	48	3	48
TAP	45	96	1
TAP	45	120	0
TAP	45	144	7
TAP	45	168	6
HLD	45	192	5	48
TAP	45	240	1
TAP	45	264	0
TAP	45	288	1
TAP	45	336	2
TAP	45	336	7
TAP	46	0	0
TAP	46	0	4
TAP	46	72	1
TAP	46	72	6
TAP	46	96	1
TAP	46	96	6
STR	46	144	3
SCL	46	144	3	96	60	0
STR	46	144	4
SCR	46	144	4	96	60	7
BRK	46	192	3
BRK	46	192	4
STR	47	0	7
SI_	47	0	7	96	36	3
TAP	47	48	7
STR	47	96	0
SI_	47	96	0	96	36	2
TAP	47	144	0
STR	47	192	7
SI_	47	192	7	96	36	5
TAP	47	240	7
STR	47	288	0
SI_	47	288	0	96	36	4
TAP	47	336	0
STR	48	0	7
SUL	48	0	7	96	48	2
TAP	48	48	7
STR	48	96	0
SUR	48	96	0	96	48	5
TAP	48	144	0
TAP	48	192	7
TAP	48	240	7
TAP	48	288	3
TAP	48	288	7
TAP	49	0	1
TAP	49	0	5
TAP	49	48	1
TAP	49	48	5
TAP	49	96	6
TAP	49	120	7
TAP	49	144	6
TAP	49	192	0
TAP	49	192	4
TAP	49	240	0
TAP	49	240	4
TAP	49	288	2
TAP	49	312	3
TAP	49	336	2
STR	50	0	1
SCR	50	0	1	96	48	4
STR	50	0	5
SCR	50	0	5	96	48	0
BRK	50	192	2
BRK	50	192	3
BRK	50	240	4
BRK	50	240	5
BRK	50	288	0
BRK	50	288	7
STR	51	0	3
SI_	51	0	3	96	96	7
TAP	51	0	4
TAP	51	144	5
HLD	51	192	5	96
TAP	51	288	6
TAP	52	0	3
STR	52	0	4
SI_	52	0	4	96	96	0
TAP	52	144	2
HLD	52	192	2	96
TAP	52	288	1
STR	53	0	6
SCL	53	0	6	96	48	3
HLD	53	0	7	96
HLD	53	192	0	96
STR	53	192	1
SCR	53	192	1	96	48	4
STR	54	0	2
SCL	54	0	2	96	120	5
STR	54	0	5
SCR	54	0	5	96	120	2
BRK	54	288	3
BRK	54	288	4
HLD	55	0	5	96
TAP	55	0	7
TAP	55	96	4
TAP	55	192	0
HLD	55	192	2	96
TAP	55	288	3
TAP	56	0	0
HLD	56	0	6	96
TAP	56	96	4
HLD	56	192	1	96
TAP	56	192	7
TAP	56	288	3
TAP	57	0	1
HLD	57	0	7	96
TAP	57	96	5
HLD	57	192	0	96
TAP	57	192	6
TAP	57	288	2
STR	58	0	2
SXR	58	0	2	96	120	4
STR	58	0	5
SXL	58	0	5	96	120	3
BRK	58	288	0
BRK	58	288	7
TAP	59	0	4
TAP	59	0	6
TAP	59	72	2
TAP	59	72	3
TAP	59	96	2
TAP	59	96	3
TAP	59	168	4
TAP	59	168	5
STR	59	192	4
SCR	59	192	4	96	48	0
SUR	59	192	4	96	48	0
TAP	59	192	5
TAP	60	0	6
TAP	60	24	1
TAP	60	48	5
TAP	60	72	2
TAP	60	96	4
TAP	60	120	3
TAP	60	144	4
TAP	60	192	2
STR	60	192	3
SCL	60	192	3	96	48	7
SUL	60	192	3	96	48	7
HLD	61	0	6	96
TAP	61	96	7
TAP	61	144	0
TAP	61	192	1
TAP	61	192	4
TAP	61	240	2
TAP	61	264	3
STR	61	288	2
SCL	61	288	2	96	96	7
TAP	61	336	2
STR	62	0	7
SCL	62	0	7	96	96	4
STR	62	96	4
SUL	62	96	4	96	120	3
TAP	62	192	0
BRK	62	288	7
HLD	63	0	0	72
HLD	63	0	1	72
HLD	63	96	4	72
HLD	63	96	5	72
TAP	63	192	2
STR	63	192	3
SCL	63	192	3	96	48	7
SUL	63	192	3	96	48	7
TAP	64	0	4
TAP	64	0	6
TAP	64	48	1
TAP	64	96	0
TAP	64	96	2
TAP	64	144	4
TAP	64	192	3
STR	64	192	5
SXL	64	192	5	96	96	3
TAP	64	288	0
STR	65	0	2
SXR	65	0	2	96	96	4
TAP	65	96	7
TAP	65	192	5
STR	65	288	3
SXR	65	288	3	96	96	3
STR	65	288	4
SXL	65	288	4	96	96	4
BRK	66	0	3
BRK	66	0	4
TAP	66	192	0
TAP	66	216	7
TAP	66	240	0
TAP	66	264	7
TAP	66	288	0
TAP	66	312	7
TAP	66	336	0
TAP	66	360	7
HLD	67	0	0	72
HLD	67	0	6	72
HLD	67	96	2	72
HLD	67	96	7	72
STR	67	192	4
SUR	67	192	4	96	48	1
STR	67	192	5
SCR	67	192	5	96	48	0
HLD	68	0	2	48
TAP	68	0	3
TAP	68	48	5
HLD	68	96	6	48
TAP	68	96	7
TAP	68	144	1
STR	68	192	2
SCL	68	192	2	96	48	7
STR	68	192	3
SUL	68	192	3	96	48	6
HLD	69	0	5	96
TAP	69	96	4
TAP	69	144	3
TAP	69	192	1
TAP	69	192	6
TAP	69	240	3
TAP	69	264	4
STR	69	288	3
SI_	69	288	3	96	48	7
TAP	69	336	3
STR	70	0	4
SI_	70	0	4	96	48	0
STR	70	96	2
SXL	70	96	2	96	96	7
TAP	70	192	5
BRK	70	288	0
STR	71	0	4
SI_	71	0	4	96	36	0
TAP	71	0	5
TAP	71	96	4
STR	71	96	7
SI_	71	96	7	96	36	3
STR	71	192	1
SI_	71	192	1	96	36	5
TAP	71	192	7
BRK	71	288	0
BRK	71	288	1
TAP	72	0	2
STR	72	0	3
SI_	72	0	3	96	36	7
STR	72	96	0
SI_	72	96	0	96	36	4
TAP	72	96	3
TAP	72	192	0
STR	72	192	6
SI_	72	192	6	96	36	2
BRK	72	288	6
BRK	72	288	7
STR	73	0	4
SI_	73	0	4	96	36	1
STR	73	0	5
SI_	73	0	5	96	36	0
TAP	73	96	4
TAP	73	96	5
STR	73	192	2
SI_	73	192	2	96	36	7
STR	73	192	3
SI_	73	192	3	96	36	6
TAP	73	288	2
TAP	73	288	3
STR	74	0	3
SUR	74	0	3	96	96	4
TAP	74	0	4
TAP	74	96	3
STR	74	96	4
SCR	74	96	4	96	96	3
TAP	74	192	0
BRK	74	288	7
TAP	75	0	0
TAP	75	0	7
TAP	75	48	5
TAP	75	72	4
TAP	75	72	6
TAP	75	120	2
TAP	75	144	1
TAP	75	144	3
TAP	75	192	6
TAP	75	192	7
TAP	75	240	0
TAP	75	240	1
TAP	75	288	3
TAP	75	288	4
TAP	76	0	0
TAP	76	0	7
TAP	76	48	2
TAP	76	72	1
TAP	76	72	3
TAP	76	120	5
TAP	76	144	4
TAP	76	144	6
STR	76	192	0
SF_	76	192	0	96	36	4
BRK	76	288	0
TAP	77	0	2
TAP	77	0	6
TAP	77	96	7
TAP	77	120	3
TAP	77	144	4
TAP	77	168	1
TAP	77	192	6
TAP	77	216	2
TAP	77	240	5
TAP	77	264	0
TAP	77	288	4
TAP	77	312	3
TAP	77	336	4
TAP	78	0	1
TAP	78	0	7
TAP	78	48	4
TAP	78	48	5
TAP	78	72	4
TAP	78	72	5
TAP	78	120	2
TAP	78	120	3
TAP	78	144	2
TAP	78	144	3
TAP	78	192	1
TAP	78	192	6
STR	78	288	0
SXL	78	288	0	96	144	3
STR	78	288	4
SXL	78	288	4	96	144	7
BRK	79	0	0
BRK	79	0	4
TAP	79	192	1
TAP	79	192	5

T_REC_TAP	391
T_REC_BRK	37
T_REC_XTP	0
T_REC_HLD	59
T_REC_XHO	0
T_REC_STR	101
T_REC_BST	0
T_REC_XST	0
T_REC_TTP	0
T_REC_THO	0
T_REC_SLD	115
T_REC_ALL	703
T_NUM_TAP	492
T_NUM_BRK	37
T_NUM_HLD	59
T_NUM_SLD	115
T_NUM_ALL	703
T_JUDGE_TAP	529
T_JUDGE_HLD	115
T_JUDGE_SLD	115
T_JUDGE_ALL	759
TTM_EACHPAIRS	176
TTM_SCR_TAP	246000
TTM_SCR_BRK	96200
TTM_SCR_HLD	59000
TTM_SCR_SLD	172500
TTM_SCR_ALL	573700
TTM_SCR_S	552900
TTM_SCR_SS	570000
TTM_RAT_ACV	10064

