VERSION	0.00.00	1.03.00
FES_MODE	0
BPM_DEF	140.000	140.000	140.000	140.000
MET_DEF	4	4
RESOLUTION	384
CLK_DEF	384
COMPATIBLE_CODE	MA2

BPM	0	0	140.000
MET	0	0	4	4

BRK	2	288	0
STR	3	0	4
SI_	3	0	4	96	48	7
TAP	3	96	3
TAP	3	192	0
TAP	3	240	1
TAP	3	288	2
TAP	3	288	7
STR	4	0	3
SI_	4	0	3	96	48	0
TAP	4	96	4
TAP	4	192	1
TAP	4	192	6
TAP	4	288	3
TAP	4	288	4
TAP	5	0	0
TAP	5	0	7
TAP	5	96	3
STR	5	96	5
SCR	5	96	5	96	48	0
TAP	5	288	1
TAP	6	0	0
TAP	6	0	7
STR	6	96	2
SCL	6	96	2	96	48	7
TAP	6	96	4
TAP	6	288	6
TAP	7	0	0
TAP	7	0	7
TAP	7	96	3
STR	7	96	5
SCR	7	96	5	96	48	0
TAP	7	288	1
STR	8	0	3
SCL	8	0	3	96	48	0
STR	8	192	4
SCR	8	192	4	96	48	7
TAP	9	0	0
TAP	9	0	7
STR	9	96	2
SCL	9	96	2	96	48	7
TAP	9	96	4
TAP	9	288	5
TAP	10	0	0
TAP	10	0	7
TAP	10	96	3
STR	10	96	5
SCR	10	96	5	96	48	0
TAP	10	288	2
TAP	11	0	0
TAP	11	0	7
STR	11	96	2
SCL	11	96	2	96	48	7
TAP	11	96	4
TAP	11	288	5
STR	12	0	4
SCR	12	0	4	96	48	7
STR	12	192	3
SCL	12	192	3	96	48	0
TAP	13	0	5
TAP	13	96	4
TAP	13	96	6
TAP	13	192	2
TAP	13	288	1
TAP	13	288	3
TAP	14	0	6
TAP	14	48	6
TAP	14	96	5
TAP	14	96	7
TAP	14	192	1
TAP	14	240	1
TAP	14	288	0
TAP	14	288	2
TAP	15	0	4
TAP	15	0	5
TAP	15	96	4
TAP	15	96	6
TAP	15	192	2
TAP	15	192	3
TAP	15	288	1
TAP	15	288	3
TAP	16	0	5
TAP	16	0	6
TAP	16	96	0
STR	16	96	7
SCL	16	96	7	96	96	3
TAP	17	0	1
TAP	17	96	0
TAP	17	96	2
TAP	17	192	6
TAP	17	288	5
TAP	17	288	7
TAP	18	0	2
TAP	18	48	2
TAP	18	96	1
TAP	18	96	3
TAP	18	192	5
TAP	18	240	5
TAP	18	288	4
TAP	18	288	6
TAP	19	0	0
TAP	19	0	1
TAP	19	96	0
TAP	19	96	2
TAP	19	192	6
TAP	19	192	7
TAP	19	288	5
TAP	19	288	7
TAP	20	0	1
TAP	20	0	2
STR	20	96	0
SXL	20	96	0	96	144	4
TAP	20	96	7
HLD	21	0	5	192
TAP	21	144	4
TAP	21	192	4
TAP	21	288	6
TAP	21	288	7
HLD	22	0	2	192
TAP	22	144	3
TAP	22	192	3
TAP	22	288	0
TAP	22	288	1
TAP	23	0	1
TAP	23	48	1
TAP	23	96	7
TAP	23	144	7
TAP	23	192	3
TAP	23	240	3
TAP	23	288	5
TAP	23	336	5
STR	24	0	2
SCR	24	0	2	96	96	5
STR	24	0	6
SCR	24	0	6	96	96	1
BRK	24	288	3
BRK	24	288	7
TAP	25	0	1
TAP	25	0	6
HLD	25	96	2	96
STR	25	96	4
SI_	25	96	4	96	48	7
BRK	25	288	0
TAP	26	0	3
TAP	26	0	4
TAP	26	48	5
TAP	26	96	3
TAP	26	96	4
TAP	26	144	2
TAP	26	192	3
STR	26	192	4
SI_	26	192	4	96	24	0
STR	27	0	0
SI_	27	0	0	96	48	5
STR	27	0	1
SI_	27	0	1	96	48	4
STR	27	192	6
SI_	27	192	6	96	48	3
STR	27	192	7
SI_	27	192	7	96	48	2
TAP	28	0	4
TAP	28	0	5
TAP	28	96	2
TAP	28	96	3
TAP	28	192	4
HLD	28	192	5	96
BRK	28	288	0
TAP	29	0	1
TAP	29	0	6
STR	29	96	3
SI_	29	96	3	96	48	0
HLD	29	96	5	96
BRK	29	288	7
TAP	30	0	3
TAP	30	0	4
TAP	30	48	2
TAP	30	96	3
TAP	30	96	4
TAP	30	144	5
STR	30	192	3
SI_	30	192	3	96	48	7
TAP	30	192	4
HLD	31	0	5	96
HLD	31	96	4	96
HLD	31	192	3	96
TAP	31	288	2
STR	32	0	3
SI_	32	0	3	96	48	1
STR	32	0	4
SI_	32	0	4	96	48	0
STR	32	192	3
SI_	32	192	3	96	48	7
STR	32	192	4
SI_	32	192	4	96	48	6
TAP	33	0	1
TAP	33	0	6
STR	33	96	3
SI_	33	96	3	96	48	7
STR	33	96	4
SI_	33	96	4	96	48	7
BRK	33	288	0
TAP	34	0	3
TAP	34	0	4
TAP	34	48	6
TAP	34	96	3
TAP	34	96	4
TAP	34	144	1
TAP	34	192	3
STR	34	192	4
SI_	34	192	4	96	48	7
STR	35	0	0
SI_	35	0	0	96	48	4
STR	35	0	1
SI_	35	0	1	96	48	3
STR	35	192	6
SI_	35	192	6	96	48	4
STR	35	192	7
SI_	35	192	7	96	48	3
TAP	36	0	2
TAP	36	0	3
TAP	36	96	4
TAP	36	96	5
HLD	36	192	2	96
TAP	36	192	3
BRK	36	288	7
TAP	37	0	1
TAP	37	0	6
STR	37	96	3
SI_	37	96	3	96	48	0
STR	37	96	4
SI_	37	96	4	96	48	0
BRK	37	288	7
TAP	38	0	3
TAP	38	0	4
TAP	38	48	1
TAP	38	96	3
TAP	38	96	4
TAP	38	144	6
STR	38	192	3
SI_	38	192	3	96	48	0
TAP	38	192	4
TAP	39	0	6
STR	39	0	7
SCR	39	0	7	96	48	2
STR	39	192	0
SCL	39	192	0	96	48	5
TAP	39	192	1
TAP	40	0	6
STR	40	0	7
SCR	40	0	7	96	48	2
STR	40	192	0
SCL	40	192	0	96	48	5
TAP	40	192	1
TAP	41	0	2
TAP	41	0	4
TAP	41	48	3
TAP	41	72	3
TAP	41	120	4
TAP	41	144	4
TAP	41	192	2
TAP	41	240	3
TAP	41	288	1
TAP	41	288	4
TAP	42	0	3
TAP	42	0	5
TAP	42	48	4
TAP	42	72	4
TAP	42	120	3
TAP	42	144	3
TAP	42	192	1
TAP	42	192	6
TAP	42	288	3
TAP	42	288	4
HLD	43	0	0	96
TAP	43	0	7
TAP	43	96	3
TAP	43	192	0
HLD	43	192	7	96
TAP	43	288	4
HLD	44	0	0	96
TAP	44	0	7
TAP	44	96	2
TAP	44	192	0
HLD	44	192	7	96
TAP	44	288	5
TAP	45	0	0
TAP	45	0	1
TAP	45	96	4
TAP	45	96	5
TAP	45	192	6
TAP	45	192	7
TAP	45	288	2
TAP	45	288	3
TAP	46	0	1
TAP	46	0	6
TAP	46	72	2
TAP	46	72	5
TAP	46	144	3
TAP	46	144	4
BST	46	192	3
SI_	46	192	3	96	48	0
BST	46	192	4
SI_	46	192	4	96	48	7
HLD	47	0	1	96
TAP	47	48	0
TAP	47	96	0
HLD	47	192	6	96
TAP	47	240	7
TAP	47	288	7
HLD	48	0	2	96
TAP	48	48	3
TAP	48	96	3
HLD	48	192	5	96
TAP	48	240	4
TAP	48	288	4
TAP	49	0	3
TAP	49	48	4
TAP	49	96	5
TAP	49	144	6
TAP	49	192	7
TAP	49	240	0
TAP	49	288	1
TAP	49	336	2
TAP	50	0	3
TAP	50	0	4
TAP	50	96	0
TAP	50	120	7
TAP	50	144	0
TAP	50	168	7
TAP	50	192	0
TAP	50	240	1
TAP	50	240	6
BRK	50	288	1
BRK	50	288	6
HLD	51	0	5	192
TAP	51	144	4
TAP	51	192	4
TAP	51	288	3
TAP	51	288	6
HLD	52	0	2	192
TAP	52	144	3
TAP	52	192	3
TAP	52	288	1
TAP	52	288	4
HLD	53	0	5	96
TAP	53	96	4
HLD	53	192	2	96
TAP	53	288	3
HLD	54	0	5	96
HLD	54	96	4	96
HLD	54	192	3	96
TAP	54	288	2
HLD	55	0	5	192
TAP	55	144	4
TAP	55	192	4
TAP	55	288	6
TAP	55	288	7
HLD	56	0	2	192
TAP	56	144	3
TAP	56	192	3
TAP	56	288	0
TAP	56	288	1
HLD	57	0	5	96
TAP	57	96	6
HLD	57	192	2	96
TAP	57	288	1
STR	58	0	1
SCL	58	0	1	96	96	6
STR	58	0	5
SCL	58	0	5	96	96	2
BRK	58	288	0
BRK	58	288	4
TAP	59	0	0
TAP	59	0	7
TAP	59	96	3
STR	59	96	4
SI_	59	96	4	96	48	1
SI_	59	96	4	96	48	7
BRK	59	288	0
TAP	60	0	2
TAP	60	0	4
TAP	60	48	3
TAP	60	96	4
TAP	60	96	6
TAP	60	144	5
STR	60	192	3
SI_	60	192	3	96	48	6
TAP	60	192	4
TAP	61	0	7
TAP	61	48	6
TAP	61	96	4
TAP	61	96	5
TAP	61	192	3
TAP	61	240	2
TAP	61	288	0
TAP	61	288	1
TAP	62	0	5
TAP	62	0	6
TAP	62	96	1
TAP	62	96	2
TAP	62	192	5
HLD	62	192	6	96
BRK	62	288	0
TAP	63	0	3
TAP	63	0	4
STR	63	96	3
SI_	63	96	3	96	48	0
SI_	63	96	3	96	48	6
TAP	63	96	4
BRK	63	288	7
TAP	64	0	3
TAP	64	0	5
TAP	64	48	4
TAP	64	96	1
TAP	64	96	3
TAP	64	144	2
TAP	64	192	3
STR	64	192	4
SI_	64	192	4	96	48	1
HLD	65	0	2	96
HLD	65	96	3	96
HLD	65	192	4	96
HLD	65	288	5	96
STR	66	0	4
SI_	66	0	4	96	48	0
SCR	66	0	4	96	48	6
STR	66	192	3
SI_	66	192	3	96	48	7
SCL	66	192	3	96	48	1
TAP	67	0	0
TAP	67	0	7
STR	67	96	2
SI_	67	96	2	96	48	7
STR	67	96	3
SI_	67	96	3	96	48	6
BRK	67	288	0
BRK	67	288	4
TAP	68	0	1
TAP	68	0	3
TAP	68	48	2
TAP	68	96	4
TAP	68	96	6
TAP	68	144	5
STR	68	192	2
SI_	68	192	2	96	48	0
TAP	68	192	4
TAP	69	0	7
TAP	69	48	0
TAP	69	96	1
TAP	69	96	2
TAP	69	192	3
TAP	69	240	4
TAP	69	288	5
TAP	69	288	6
TAP	70	0	1
TAP	70	0	2
TAP	70	96	5
TAP	70	96	6
HLD	70	192	1	96
TAP	70	192	2
BRK	70	288	7
TAP	71	0	0
TAP	71	0	7
STR	71	96	4
SI_	71	96	4	96	48	1
STR	71	96	5
SI_	71	96	5	96	48	0
BRK	71	288	3
BRK	71	288	7
TAP	72	0	4
TAP	72	0	6
TAP	72	48	5
TAP	72	96	1
TAP	72	96	3
TAP	72	144	2
TAP	72	192	3
STR	72	192	5
SI_	72	192	5	96	48	7
STR	73	0	0
SCL	73	0	0	96	48	5
HLD	73	0	1	96
HLD	73	192	6	96
STR	73	192	7
SCR	73	192	7	96	48	2
STR	74	0	0
SCL	74	0	0	96	48	5
HLD	74	0	1	96
HLD	74	192	6	96
STR	74	192	7
SCR	74	192	7	96	48	2
TAP	75	0	2
TAP	75	0	5
TAP	75	48	3
TAP	75	72	3
TAP	75	120	4
TAP	75	144	4
TAP	75	192	2
TAP	75	240	3
TAP	75	288	1
TAP	75	288	4
TAP	76	0	2
TAP	76	0	5
TAP	76	48	4
TAP	76	72	4
TAP	76	120	3
TAP	76	144	3
TAP	76	192	6
TAP	76	192	7
TAP	76	264	3
TAP	76	264	4
TAP	76	336	0
TAP	76	336	1
HLD	77	0	0	96
STR	77	0	1
SI_	77	0	1	96	48	4
STR	77	192	6
SI_	77	192	6	96	48	3
HLD	77	192	7	96
TAP	78	0	2
TAP	78	0	5
TAP	78	48	3
TAP	78	72	3
TAP	78	120	4
TAP	78	144	4
STR	78	192	3
SI_	78	192	3	96	48	7
BST	78	288	5
SCR	78	288	5	96	192	2

T_REC_TAP	331
T_REC_BRK	21
T_REC_XTP	0
T_REC_HLD	40
T_REC_XHO	0
T_REC_STR	63
T_REC_BST	3
T_REC_XST	0
T_REC_TTP	0
T_REC_THO	0
T_REC_SLD	70
T_REC_ALL	528
T_NUM_TAP	394
T_NUM_BRK	24
T_NUM_HLD	40
T_NUM_SLD	70
T_NUM_ALL	528
T_JUDGE_TAP	418
T_JUDGE_HLD	92
T_JUDGE_SLD	70
T_JUDGE_ALL	580
TTM_EACHPAIRS	146
TTM_SCR_TAP	197000
TTM_SCR_BRK	62400
TTM_SCR_HLD	40000
TTM_SCR_SLD	105000
TTM_SCR_ALL	404400
TTM_SCR_S	389950
TTM_SCR_SS	402000
TTM_RAT_ACV	10059

