VERSION	0.00.00	1.03.00
FES_MODE	0
BPM_DEF	140.000	140.000	140.000	140.000
MET_DEF	4	4
RESOLUTION	384
CLK_DEF	384
COMPATIBLE_CODE	MA2

BPM	0	0	140.000
MET	0	0	4	4

TAP	3	0	6
TAP	3	96	5
TAP	3	192	4
TAP	3	240	4
TAP	3	288	3
TAP	4	0	1
TAP	4	96	2
TAP	4	192	3
TAP	4	192	4
TAP	4	288	2
TAP	4	288	5
BRK	5	0	1
BRK	5	0	6
STR	5	96	5
SI_	5	96	5	96	96	2
TAP	6	0	1
STR	6	96	2
SI_	6	96	2	96	96	5
TAP	7	0	7
STR	7	96	6
SI_	7	96	6	96	96	3
TAP	8	0	2
TAP	8	0	5
TAP	8	96	1
TAP	8	96	6
BRK	8	192	0
BRK	8	192	7
BRK	8	288	0
BRK	8	288	7
TAP	9	0	1
STR	9	96	2
SI_	9	96	2	96	96	5
TAP	10	0	6
STR	10	96	5
SI_	10	96	5	96	96	2
TAP	11	0	0
STR	11	96	1
SI_	11	96	1	96	96	4
TAP	12	0	2
TAP	12	0	5
TAP	12	96	1
TAP	12	96	6
TAP	12	192	0
TAP	12	192	7
TAP	12	288	0
TAP	12	288	7
TAP	13	0	2
TAP	13	96	3
TAP	13	192	2
TAP	13	192	4
TAP	14	0	5
TAP	14	96	4
TAP	14	192	3
TAP	14	192	5
TAP	15	0	2
TAP	15	96	2
TAP	15	96	3
TAP	15	192	5
TAP	15	288	4
TAP	15	288	5
TAP	16	0	2
TAP	16	0	3
TAP	16	96	1
TAP	16	96	4
TAP	16	192	0
TAP	16	192	5
TAP	17	0	5
TAP	17	96	4
TAP	17	192	3
TAP	17	192	5
TAP	18	0	2
TAP	18	96	3
TAP	18	192	2
TAP	18	192	4
TAP	19	0	5
TAP	19	96	4
TAP	19	96	5
TAP	19	192	2
TAP	19	288	2
TAP	19	288	3
TAP	20	0	4
TAP	20	0	5
TAP	20	96	3
TAP	20	96	6
TAP	20	192	2
TAP	20	192	7
HLD	21	0	1	192
HLD	21	192	2	192
HLD	22	0	3	192
HLD	22	192	4	192
TAP	23	0	5
TAP	23	96	4
TAP	23	96	6
TAP	23	192	2
TAP	23	288	1
TAP	23	288	3
TAP	24	0	5
TAP	24	96	4
TAP	24	96	6
TAP	24	192	3
TAP	24	192	7
BRK	25	0	4
STR	25	96	3
SI_	25	96	3	96	96	0
TAP	25	96	5
TAP	26	0	7
TAP	26	96	0
TAP	26	96	6
TAP	26	192	1
TAP	26	192	5
HLD	27	0	2	96
TAP	27	96	3
HLD	27	192	5	96
TAP	27	288	4
TAP	28	0	2
TAP	28	0	3
TAP	28	96	4
TAP	28	96	5
TAP	28	192	2
TAP	28	192	3
TAP	29	0	3
TAP	29	96	2
STR	29	96	4
SI_	29	96	4	96	96	7
TAP	30	0	0
TAP	30	96	1
TAP	30	96	7
TAP	30	192	2
TAP	30	192	6
TAP	31	0	4
TAP	31	96	3
TAP	31	192	2
TAP	31	192	5
TAP	32	0	4
TAP	32	0	5
TAP	32	96	2
TAP	32	96	3
TAP	32	192	4
TAP	32	192	5
TAP	33	0	4
STR	33	96	3
SI_	33	96	3	96	96	0
TAP	33	96	5
TAP	34	0	7
TAP	34	96	0
TAP	34	96	6
TAP	34	192	1
TAP	34	192	5
HLD	35	0	5	96
TAP	35	96	4
HLD	35	192	2	96
TAP	35	288	3
TAP	36	0	4
TAP	36	0	5
TAP	36	96	2
TAP	36	96	3
TAP	36	192	4
TAP	36	192	6
TAP	37	0	3
TAP	37	96	2
STR	37	96	4
SCR	37	96	4	96	96	7
TAP	38	0	0
TAP	38	96	1
TAP	38	96	7
TAP	38	192	2
TAP	38	192	6
TAP	39	0	3
TAP	39	96	4
TAP	39	192	2
TAP	39	192	5
TAP	40	0	2
TAP	40	0	3
TAP	40	96	4
TAP	40	96	5
TAP	40	192	1
TAP	40	192	3
TAP	41	0	1
TAP	41	96	2
TAP	41	192	3
TAP	41	240	3
TAP	41	288	4
TAP	42	0	6
TAP	42	96	5
TAP	42	192	3
TAP	42	192	4
TAP	42	288	2
TAP	42	288	5
BRK	43	0	1
BRK	43	0	6
STR	43	96	2
SI_	43	96	2	96	96	7
TAP	44	0	6
STR	44	96	5
SI_	44	96	5	96	96	0
TAP	45	0	2
STR	45	96	3
SI_	45	96	3	96	96	7
TAP	46	0	5
STR	46	96	4
SI_	46	96	4	96	96	0
HLD	47	0	1	96
TAP	47	96	0
TAP	47	192	2
TAP	47	192	7
HLD	48	0	6	96
TAP	48	96	7
TAP	48	192	0
TAP	48	192	5
HLD	49	0	0	96
TAP	49	96	7
TAP	49	192	1
TAP	49	192	6
STR	50	0	0
SCR	50	0	0	96	144	3
STR	50	0	7
SCL	50	0	7	96	144	4
HLD	51	0	6	192
HLD	51	192	5	192
HLD	52	0	4	192
HLD	52	192	3	192
HLD	53	0	2	192
STR	53	192	1
SCL	53	192	1	96	288	5
TAP	55	0	4
TAP	55	0	5
TAP	55	192	2
TAP	55	192	3
TAP	56	0	3
TAP	56	0	4
TAP	56	192	2
TAP	56	192	5
TAP	57	0	1
TAP	57	0	6
STR	57	192	0
SCR	57	192	0	96	168	3
STR	57	192	7
SCL	57	192	7	96	168	4
TAP	58	192	3
TAP	58	192	4
TAP	58	288	3
TAP	58	288	4
BRK	59	0	5
STR	59	96	4
SI_	59	96	4	96	96	0
TAP	59	96	6
TAP	60	0	7
TAP	60	96	0
TAP	60	96	6
TAP	60	192	1
TAP	60	192	5
HLD	61	0	6	96
TAP	61	96	4
HLD	61	192	1	96
TAP	61	288	3
TAP	62	0	4
TAP	62	0	5
TAP	62	96	2
TAP	62	96	3
TAP	62	192	4
TAP	62	192	6
TAP	63	0	2
TAP	63	96	1
STR	63	96	3
SI_	63	96	3	96	96	7
TAP	64	0	0
TAP	64	96	1
TAP	64	96	7
TAP	64	192	2
TAP	64	192	6
TAP	65	0	4
TAP	65	96	3
TAP	65	192	2
TAP	65	192	5
TAP	66	0	2
TAP	66	0	3
TAP	66	96	4
TAP	66	96	5
TAP	66	192	1
TAP	66	192	3
TAP	67	0	5
STR	67	96	4
SI_	67	96	4	96	96	0
TAP	67	96	6
TAP	68	0	7
TAP	68	96	0
TAP	68	96	6
TAP	68	192	1
TAP	68	192	5
HLD	69	0	1	96
TAP	69	96	3
HLD	69	192	6	96
TAP	69	288	4
TAP	70	0	1
TAP	70	0	3
TAP	70	96	4
TAP	70	96	6
TAP	70	192	0
TAP	70	192	4
TAP	71	0	2
TAP	71	96	1
STR	71	96	3
SI_	71	96	3	96	96	7
TAP	72	0	0
TAP	72	96	1
TAP	72	96	7
TAP	72	192	2
TAP	72	192	6
TAP	73	0	3
TAP	73	96	4
TAP	73	192	2
TAP	73	192	5
TAP	74	0	4
TAP	74	0	6
TAP	74	96	1
TAP	74	96	3
TAP	74	192	3
TAP	74	192	7
TAP	75	0	6
TAP	75	96	5
TAP	75	192	4
TAP	75	240	4
TAP	75	288	3
TAP	76	0	1
TAP	76	96	2
TAP	76	192	3
TAP	76	192	4
TAP	76	288	2
TAP	76	288	5
BRK	77	0	1
BRK	77	0	6
STR	77	96	0
SCR	77	96	0	96	96	3
STR	77	96	7
SCL	77	96	7	96	96	4
TAP	78	0	3
TAP	78	0	4
TAP	78	96	2
TAP	78	96	5
TAP	78	192	1
TAP	78	192	6
TAP	78	288	0
TAP	78	288	7
BRK	79	0	0
BRK	79	0	7

T_REC_TAP	261
T_REC_BRK	14
T_REC_XTP	0
T_REC_HLD	20
T_REC_XHO	0
T_REC_STR	25
T_REC_BST	0
T_REC_XST	0
T_REC_TTP	0
T_REC_THO	0
T_REC_SLD	25
T_REC_ALL	345
T_NUM_TAP	286
T_NUM_BRK	14
T_NUM_HLD	20
T_NUM_SLD	25
T_NUM_ALL	345
T_JUDGE_TAP	300
T_JUDGE_HLD	58
T_JUDGE_SLD	25
T_JUDGE_ALL	383
TTM_EACHPAIRS	105
TTM_SCR_TAP	143000
TTM_SCR_BRK	36400
TTM_SCR_HLD	20000
TTM_SCR_SLD	37500
TTM_SCR_ALL	236900
TTM_SCR_S	228450
TTM_SCR_SS	235500
TTM_RAT_ACV	10059

