VERSION	0.00.00	1.03.00
FES_MODE	0
BPM_DEF	140.000	140.000	140.000	140.000
MET_DEF	4	4
RESOLUTION	384
CLK_DEF	384
COMPATIBLE_CODE	MA2

BPM	0	0	140.000
MET	0	0	4	4

TAP	3	0	0
TAP	3	192	0
TAP	4	0	7
TAP	4	192	7
TAP	5	0	0
TAP	5	96	0
TAP	5	192	0
TAP	6	0	1
TAP	6	96	1
TAP	6	192	1
TAP	7	0	2
TAP	7	96	2
TAP	7	192	2
TAP	8	0	3
TAP	8	96	3
TAP	8	192	3
TAP	9	0	4
TAP	9	96	4
TAP	9	192	4
TAP	10	0	5
TAP	10	96	5
TAP	10	192	5
TAP	11	0	6
TAP	11	96	6
TAP	11	192	6
TAP	12	0	7
TAP	12	96	7
TAP	12	192	7
TAP	13	0	0
TAP	13	192	0
TAP	14	0	1
TAP	14	192	1
TAP	15	0	2
TAP	15	192	2
TAP	16	0	3
TAP	16	96	3
TAP	16	192	3
TAP	16	192	4
TAP	17	0	4
TAP	17	192	4
TAP	18	0	5
TAP	18	192	5
TAP	19	0	6
TAP	19	192	6
TAP	20	0	7
TAP	20	96	7
TAP	20	192	0
TAP	20	192	7
STR	21	0	0
SI_	21	0	0	96	288	3
STR	23	0	7
SI_	23	0	7	96	288	4
TAP	25	0	2
TAP	25	96	2
TAP	25	192	2
TAP	25	192	3
TAP	26	0	1
TAP	26	96	1
TAP	26	192	0
TAP	26	192	1
TAP	27	0	6
TAP	27	96	6
TAP	27	192	6
TAP	27	192	7
TAP	28	0	5
TAP	28	96	5
TAP	28	192	4
TAP	28	192	5
TAP	29	0	2
TAP	29	96	2
TAP	29	192	2
TAP	29	192	3
TAP	30	0	1
TAP	30	96	1
TAP	30	192	0
TAP	30	192	1
HLD	31	0	0	192
HLD	31	0	1	192
HLD	32	0	6	192
HLD	32	0	7	192
TAP	33	0	5
TAP	33	96	5
TAP	33	192	4
TAP	33	192	5
TAP	34	0	6
TAP	34	96	6
TAP	34	192	6
TAP	34	192	7
TAP	35	0	1
TAP	35	96	1
TAP	35	192	0
TAP	35	192	1
TAP	36	0	2
TAP	36	96	2
TAP	36	192	2
TAP	36	192	3
TAP	37	0	5
TAP	37	96	5
TAP	37	192	4
TAP	37	192	5
TAP	38	0	6
TAP	38	96	6
TAP	38	192	6
TAP	38	192	7
HLD	39	0	0	192
HLD	39	0	1	192
HLD	40	0	6	192
HLD	40	0	7	192
TAP	41	0	0
TAP	41	96	0
TAP	41	192	0
TAP	41	192	7
TAP	42	0	7
TAP	42	96	7
TAP	42	192	0
TAP	42	192	7
BRK	43	0	6
TAP	43	192	6
TAP	44	0	5
TAP	44	96	5
TAP	44	192	5
TAP	45	0	4
TAP	45	192	4
TAP	46	0	3
TAP	46	96	3
TAP	46	192	3
TAP	47	0	2
TAP	47	192	2
TAP	48	0	1
TAP	48	96	1
TAP	48	192	1
TAP	49	0	0
TAP	49	192	0
TAP	50	0	7
TAP	50	96	7
TAP	50	192	7
STR	51	0	6
SI_	51	0	6	96	288	2
STR	53	0	1
SI_	53	0	1	96	288	5
STR	55	0	7
SI_	55	0	7	96	288	3
STR	57	0	0
SI_	57	0	0	96	288	4
TAP	59	0	5
TAP	59	96	5
TAP	59	192	4
TAP	59	192	5
TAP	60	0	6
TAP	60	96	6
TAP	60	192	6
TAP	60	192	7
TAP	61	0	0
TAP	61	96	0
TAP	61	192	1
TAP	61	288	1
TAP	62	0	2
TAP	62	0	3
TAP	62	96	2
TAP	62	96	3
TAP	62	192	2
TAP	62	192	3
TAP	63	0	5
TAP	63	96	5
TAP	63	192	4
TAP	63	192	5
TAP	64	0	6
TAP	64	96	6
TAP	64	192	6
TAP	64	192	7
HLD	65	0	6	192
HLD	65	0	7	192
HLD	66	0	0	192
HLD	66	0	1	192
TAP	67	0	1
TAP	67	96	1
TAP	67	192	0
TAP	67	192	1
TAP	68	0	6
TAP	68	96	6
TAP	68	192	6
TAP	68	192	7
TAP	69	0	5
TAP	69	96	5
TAP	69	192	4
TAP	69	288	4
TAP	70	0	2
TAP	70	0	3
TAP	70	96	2
TAP	70	96	3
TAP	70	192	2
TAP	70	192	3
TAP	71	0	1
TAP	71	96	1
TAP	71	192	0
TAP	71	192	1
TAP	72	0	6
TAP	72	96	6
TAP	72	192	6
TAP	72	192	7
HLD	73	0	6	192
HLD	73	0	7	192
HLD	74	0	0	192
HLD	74	0	1	192
TAP	75	0	6
TAP	75	0	7
TAP	75	96	6
TAP	75	96	7
TAP	75	192	6
TAP	75	192	7
TAP	76	0	0
TAP	76	0	1
TAP	76	96	0
TAP	76	96	1
TAP	76	192	0
TAP	76	192	1
TAP	77	0	1
TAP	77	192	2
TAP	78	0	3
TAP	78	0	4
TAP	78	96	3
TAP	78	96	4
BRK	78	192	3
BRK	78	192	4
HLD	79	0	2	192
HLD	79	0	5	192

T_REC_TAP	193
T_REC_BRK	3
T_REC_XTP	0
T_REC_HLD	18
T_REC_XHO	0
T_REC_STR	6
T_REC_BST	0
T_REC_XST	0
T_REC_TTP	0
T_REC_THO	0
T_REC_SLD	6
T_REC_ALL	226
T_NUM_TAP	199
T_NUM_BRK	3
T_NUM_HLD	18
T_NUM_SLD	6
T_NUM_ALL	226
T_JUDGE_TAP	202
T_JUDGE_HLD	72
T_JUDGE_SLD	6
T_JUDGE_ALL	280
TTM_EACHPAIRS	48
TTM_SCR_TAP	99500
TTM_SCR_BRK	7800
TTM_SCR_HLD	18000
TTM_SCR_SLD	9000
TTM_SCR_ALL	134300
TTM_SCR_S	130000
TTM_SCR_SS	134000
TTM_RAT_ACV	10022

