VERSION	0.00.00	1.03.00
FES_MODE	0
BPM_DEF	186.000	186.000	186.000	186.000
MET_DEF	4	4
RESOLUTION	384
CLK_DEF	384
COMPATIBLE_CODE	MA2

BPM	0	0	186.000
MET	0	0	4	4

TAP	1	0	3
TAP	1	0	6
TAP	1	144	2
TAP	1	144	3
TAP	1	192	1
TAP	1	192	4
TAP	1	336	2
TAP	1	336	6
STR	2	0	2
SCL	2	0	2	96	48	7
STR	2	0	6
SCL	2	0	6	96	48	3
STR	2	96	2
SUL	2	96	2	96	48	4
TAP	2	288	0
TAP	2	288	1
TAP	3	0	2
TAP	3	0	7
TAP	3	144	6
TAP	3	144	7
TAP	3	192	0
TAP	3	192	5
TAP	3	336	2
TAP	3	336	6
STR	4	0	2
SCL	4	0	2	96	48	7
STR	4	0	6
SCL	4	0	6	96	48	3
STR	4	96	6
SUL	4	96	6	96	48	0
BRK	4	240	7
BRK	4	288	7
TAP	5	0	0
TAP	5	0	5
TAP	5	144	0
TAP	5	144	1
TAP	5	192	2
TAP	5	192	7
TAP	5	336	1
TAP	5	336	5
STR	6	0	1
SCR	6	0	1	96	48	4
STR	6	0	5
SCR	6	0	5	96	48	0
STR	6	96	5
SUR	6	96	5	96	48	3
TAP	6	288	4
TAP	6	288	5
TAP	7	0	3
TAP	7	0	6
TAP	7	144	2
TAP	7	144	3
TAP	7	192	1
TAP	7	192	4
TAP	7	336	2
TAP	7	336	6
STR	8	0	2
SCL	8	0	2	96	48	7
STR	8	0	6
SCL	8	0	6	96	48	3
STR	8	96	6
SUL	8	96	6	96	48	0
BRK	8	288	3
BRK	8	288	4
TAP	9	0	0
TAP	9	0	1
TAP	9	96	6
TAP	9	96	7
TAP	9	168	1
TAP	9	192	0
TAP	9	192	1
TAP	9	240	7
TAP	9	288	6
TAP	9	336	5
TAP	10	0	0
TAP	10	48	1
TAP	10	96	2
TAP	10	144	3
TAP	10	192	4
TAP	10	192	5
TAP	10	288	3
TAP	10	288	6
TAP	11	0	2
TAP	11	0	3
TAP	11	96	4
TAP	11	96	5
TAP	11	168	2
TAP	11	192	2
TAP	11	192	3
TAP	11	240	1
TAP	11	288	2
TAP	11	336	3
TAP	12	0	3
TAP	12	0	4
TAP	12	48	3
TAP	12	48	4
TAP	12	96	2
TAP	12	96	5
TAP	12	144	2
TAP	12	144	5
TAP	12	192	1
TAP	12	192	6
BRK	12	240	0
BRK	12	288	7
BRK	12	336	0
TAP	13	0	6
TAP	13	0	7
TAP	13	96	0
TAP	13	96	1
TAP	13	168	6
TAP	13	192	6
TAP	13	192	7
TAP	13	240	0
TAP	13	288	1
TAP	13	336	2
TAP	14	0	7
TAP	14	48	6
TAP	14	96	5
TAP	14	144	4
TAP	14	192	2
TAP	14	192	3
TAP	14	288	1
TAP	14	288	4
TAP	15	0	4
TAP	15	0	5
TAP	15	96	2
TAP	15	96	3
TAP	15	168	5
TAP	15	192	4
TAP	15	192	5
TAP	15	240	6
TAP	15	288	5
TAP	15	336	4
TAP	16	0	3
TAP	16	48	4
TAP	16	96	2
TAP	16	144	5
TAP	16	192	3
TAP	16	216	4
TAP	16	240	3
TAP	16	264	4
TAP	16	288	3
TAP	16	312	4
TAP	16	336	3
TAP	16	360	4
STR	17	0	3
SI_	17	0	3	96	48	0
STR	17	96	7
SF_	17	96	7	96	48	3
TAP	17	192	7
STR	18	0	4
SI_	18	0	4	96	48	7
STR	18	96	0
SF_	18	96	0	96	48	4
TAP	18	192	0
STR	19	0	2
SV_	19	0	2	96	48	5
TAP	19	96	2
STR	19	192	1
SCL	19	192	1	96	48	6
TAP	19	288	1
STR	20	0	5
SV_	20	0	5	96	48	2
STR	20	96	5
SCR	20	96	5	96	48	0
TAP	20	192	5
STR	21	0	0
SI_	21	0	0	96	48	6
STR	21	0	1
SI_	21	0	1	96	48	3
STR	21	96	0
SI_	21	96	0	96	48	4
STR	21	96	1
SI_	21	96	1	96	48	5
TAP	21	192	0
TAP	21	192	1
STR	22	0	6
SI_	22	0	6	96	48	4
STR	22	0	7
SI_	22	0	7	96	48	1
STR	22	96	6
SI_	22	96	6	96	48	2
STR	22	96	7
SI_	22	96	7	96	48	3
TAP	22	192	6
TAP	22	192	7
STR	23	0	0
SI_	23	0	0	96	48	5
STR	23	0	1
SI_	23	0	1	96	48	4
TAP	23	96	0
TAP	23	96	1
STR	23	192	6
SI_	23	192	6	96	48	3
STR	23	192	7
SI_	23	192	7	96	48	2
TAP	23	288	6
TAP	23	288	7
STR	24	0	1
SI_	24	0	1	96	48	4
STR	24	0	5
SI_	24	0	5	96	48	0
TAP	24	96	1
TAP	24	96	5
BRK	24	192	2
BRK	24	192	6
TAP	24	240	3
TAP	24	264	4
TAP	24	288	3
TAP	24	312	4
TAP	24	336	3
TAP	24	360	4
HLD	25	0	1	72
HLD	25	72	2	72
TAP	25	144	3
TAP	25	192	6
TAP	25	240	5
TAP	25	288	4
TAP	25	336	3
TAP	26	0	2
TAP	26	48	3
TAP	26	96	2
TAP	26	144	3
STR	26	192	2
SI_	26	192	2	96	48	6
BRK	26	288	4
HLD	27	0	7	72
HLD	27	72	6	72
TAP	27	144	5
TAP	27	192	0
TAP	27	240	1
TAP	27	288	2
TAP	27	336	3
TAP	28	0	4
TAP	28	0	5
TAP	28	48	4
TAP	28	48	5
TAP	28	96	3
TAP	28	96	6
TAP	28	144	3
TAP	28	144	6
STR	28	192	2
SCL	28	192	2	96	48	7
STR	28	192	7
SCL	28	192	7	96	48	4
BRK	28	288	2
BRK	28	288	7
HLD	29	0	6	72
HLD	29	72	5	72
TAP	29	144	4
TAP	29	192	1
TAP	29	240	2
TAP	29	288	3
TAP	29	336	4
TAP	30	0	5
TAP	30	48	4
TAP	30	96	5
TAP	30	144	4
STR	30	192	5
SI_	30	192	5	96	48	1
BRK	30	288	3
TAP	31	0	3
TAP	31	48	7
TAP	31	96	2
TAP	31	144	6
TAP	31	192	1
TAP	31	240	5
STR	31	288	0
SCR	31	288	0	96	48	3
TAP	31	336	4
BST	32	0	0
SCL	32	0	0	96	48	5
BST	32	96	0
SF_	32	96	0	96	48	4
BRK	32	192	0
TAP	32	288	1
TAP	32	288	7
STR	33	0	7
SI_	33	0	7	96	48	3
TAP	33	48	7
TAP	33	96	1
TAP	33	144	1
STR	33	192	0
SI_	33	192	0	96	48	4
TAP	33	240	0
TAP	33	288	6
TAP	33	336	6
STR	34	0	7
SUL	34	0	7	96	48	3
TAP	34	48	7
TAP	34	96	1
TAP	34	144	1
STR	34	192	0
SUR	34	192	0	96	48	4
TAP	34	240	0
TAP	34	288	6
TAP	34	336	6
STR	35	0	7
SCL	35	0	7	96	48	4
TAP	35	48	7
TAP	35	96	1
TAP	35	144	1
STR	35	192	0
SCR	35	192	0	96	48	3
TAP	35	240	0
TAP	35	288	6
TAP	35	336	6
TAP	36	0	0
TAP	36	0	7
TAP	36	48	6
TAP	36	96	0
TAP	36	96	7
TAP	36	144	1
TAP	36	192	0
TAP	36	192	7
BRK	36	240	6
BRK	36	288	6
BRK	36	336	6
STR	37	0	2
SI_	37	0	2	96	48	7
TAP	37	48	2
TAP	37	96	4
TAP	37	144	4
STR	37	192	5
SI_	37	192	5	96	48	0
TAP	37	240	5
TAP	37	288	3
TAP	37	336	3
STR	38	0	2
SCL	38	0	2	96	48	7
TAP	38	48	2
TAP	38	96	4
TAP	38	144	4
STR	38	192	5
SCR	38	192	5	96	48	0
TAP	38	240	5
TAP	38	288	3
TAP	38	336	3
TAP	39	0	2
TAP	39	0	3
TAP	39	48	4
TAP	39	96	2
TAP	39	96	3
TAP	39	144	1
TAP	39	192	2
TAP	39	192	3
TAP	39	240	5
TAP	39	288	2
TAP	39	288	3
TAP	39	336	0
TAP	40	0	4
TAP	40	0	5
TAP	40	48	3
TAP	40	96	4
TAP	40	96	5
TAP	40	144	6
TAP	40	192	4
TAP	40	192	5
TAP	40	240	2
TAP	40	288	4
TAP	40	288	5
TAP	40	336	7
TAP	41	0	3
TAP	41	0	4
TAP	41	48	3
TAP	41	48	4
TAP	41	96	2
TAP	41	96	5
TAP	41	144	2
TAP	41	144	5
TAP	41	192	0
TAP	41	216	7
TAP	41	240	0
TAP	41	264	7
TAP	41	288	0
TAP	41	312	7
TAP	41	336	0
TAP	41	360	7
TAP	42	0	1
TAP	42	0	6
BRK	43	192	7
BRK	43	288	7
STR	44	0	0
SCR	44	0	0	96	72	3
STR	44	72	3
SCR	44	72	3	96	72	6
STR	44	144	6
SCR	44	144	6	96	96	2
TAP	44	240	3
TAP	44	288	3
STR	45	0	7
SCL	45	0	7	96	72	4
STR	45	72	4
SCL	45	72	4	96	72	1
STR	45	144	1
SCL	45	144	1	96	96	5
TAP	45	240	4
TAP	45	288	4
STR	46	0	1
SCR	46	0	1	96	48	4
TAP	46	96	1
STR	46	144	6
SCR	46	144	6	96	48	1
TAP	46	240	6
HLD	46	336	3	96
TAP	47	48	2
TAP	47	96	1
STR	47	144	0
SCL	47	144	0	96	48	4
SCR	47	144	0	96	48	4
STR	48	0	7
SCL	48	0	7	96	48	4
TAP	48	96	1
STR	48	144	2
SCL	48	144	2	96	48	7
TAP	48	240	4
TAP	48	288	5
STR	48	336	6
SCL	48	336	6	96	48	3
TAP	49	48	7
TAP	49	96	0
STR	49	144	1
SCL	49	144	1	96	48	6
TAP	49	240	3
TAP	49	288	4
TAP	49	336	5
HLD	50	0	2	96
HLD	50	0	7	96
HLD	50	144	0	96
HLD	50	144	5	96
TAP	50	288	4
TAP	50	336	3
BST	51	0	3
SI_	51	0	3	96	48	1
BST	51	0	4
SI_	51	0	4	96	48	0
BST	51	96	3
SI_	51	96	3	96	48	7
BST	51	96	4
SI_	51	96	4	96	48	6
BRK	51	192	3
BRK	51	192	4
TAP	51	288	0
TAP	51	288	1
STR	52	0	7
SCL	52	0	7	96	72	4
STR	52	72	4
SCL	52	72	4	96	72	1
STR	52	144	1
SCL	52	144	1	96	96	5
TAP	52	240	4
TAP	52	288	4
STR	53	0	0
SCR	53	0	0	96	72	3
STR	53	72	3
SCR	53	72	3	96	72	6
STR	53	144	6
SCR	53	144	6	96	96	2
TAP	53	240	3
TAP	53	288	3
STR	54	0	6
SCL	54	0	6	96	48	3
TAP	54	96	6
STR	54	144	1
SCL	54	144	1	96	48	6
TAP	54	240	1
HLD	54	336	4	96
TAP	55	48	5
TAP	55	96	6
STR	55	144	7
SCL	55	144	7	96	48	3
SCR	55	144	7	96	48	3
STR	56	0	0
SCR	56	0	0	96	48	3
TAP	56	96	6
STR	56	144	5
SCR	56	144	5	96	48	0
TAP	56	240	3
TAP	56	288	2
STR	56	336	1
SCR	56	336	1	96	48	4
TAP	57	48	0
TAP	57	96	7
STR	57	144	6
SCR	57	144	6	96	48	1
TAP	57	240	4
TAP	57	288	3
TAP	57	336	2
HLD	58	0	0	96
HLD	58	0	5	96
HLD	58	144	2	96
HLD	58	144	7	96
TAP	58	288	3
TAP	58	336	4
STR	59	0	3
SCL	59	0	3	96	192	4
STR	59	0	4
SUL	59	0	4	96	192	3
TAP	60	0	2
TAP	60	0	7
TAP	60	144	6
TAP	60	192	0
TAP	60	192	5
TAP	60	336	1
TAP	61	0	2
TAP	61	0	7
TAP	61	48	3
TAP	61	96	1
TAP	61	96	4
TAP	61	144	5
TAP	61	192	3
TAP	61	192	6
TAP	61	288	7
TAP	62	0	0
TAP	62	0	5
TAP	62	144	1
TAP	62	192	2
TAP	62	192	7
TAP	62	336	6
TAP	63	0	0
TAP	63	0	5
TAP	63	48	4
TAP	63	96	3
TAP	63	96	6
TAP	63	144	2
TAP	63	192	1
TAP	63	192	4
BRK	63	240	0
BRK	63	288	0
TAP	64	0	3
TAP	64	0	6
TAP	64	144	2
TAP	64	144	3
TAP	64	192	1
TAP	64	192	4
TAP	64	336	4
TAP	64	336	5
TAP	65	0	3
TAP	65	0	6
TAP	65	48	2
TAP	65	96	0
TAP	65	96	7
TAP	65	144	6
TAP	65	192	1
TAP	65	192	5
TAP	65	288	2
TAP	65	288	3
TAP	66	0	1
TAP	66	0	4
TAP	66	144	4
TAP	66	144	5
TAP	66	192	3
TAP	66	192	6
TAP	66	336	2
TAP	66	336	3
TAP	67	0	1
TAP	67	0	4
TAP	67	48	5
TAP	67	96	0
TAP	67	96	7
TAP	67	144	1
BRK	67	192	2
BRK	67	192	6
TAP	67	288	3
TAP	67	288	4
TAP	68	0	1
TAP	68	48	5
TAP	68	72	4
TAP	68	96	5
TAP	68	144	0
TAP	68	144	7
TAP	68	192	2
TAP	68	192	3
TAP	68	240	0
TAP	68	240	7
TAP	68	288	4
TAP	68	288	5
TAP	68	336	0
TAP	68	336	7
TAP	69	0	2
TAP	69	24	3
TAP	69	48	2
TAP	69	72	3
TAP	69	96	2
BRK	69	144	6
BRK	69	144	7
TAP	69	192	5
TAP	69	216	4
TAP	69	240	5
TAP	69	264	4
TAP	69	288	5
BRK	69	336	0
BRK	69	336	1
TAP	70	0	6
TAP	70	48	2
TAP	70	72	3
TAP	70	96	2
TAP	70	144	0
TAP	70	144	7
TAP	70	192	4
TAP	70	192	5
TAP	70	240	0
TAP	70	240	7
TAP	70	288	2
TAP	70	288	3
TAP	70	336	0
TAP	70	336	7
TAP	71	0	6
TAP	71	24	7
TAP	71	48	6
TAP	71	72	7
TAP	71	96	6
BRK	71	144	0
BRK	71	144	7
TAP	71	192	1
TAP	71	216	0
TAP	71	240	1
TAP	71	264	0
TAP	71	288	1
BRK	71	336	0
BRK	71	336	7
TAP	72	0	1
TAP	72	48	5
TAP	72	72	4
TAP	72	96	5
TAP	72	144	0
TAP	72	144	7
TAP	72	192	2
TAP	72	192	3
TAP	72	240	0
TAP	72	240	7
TAP	72	288	4
TAP	72	288	5
TAP	72	336	0
TAP	72	336	7
TAP	73	0	0
TAP	73	24	1
TAP	73	48	2
TAP	73	72	3
TAP	73	96	4
BRK	73	144	7
TAP	73	192	7
TAP	73	216	6
TAP	73	240	5
TAP	73	264	4
TAP	73	288	3
BRK	73	336	0
TAP	74	0	0
TAP	74	0	4
TAP	74	24	1
TAP	74	24	5
TAP	74	48	2
TAP	74	48	6
TAP	74	72	3
TAP	74	72	7
TAP	74	96	0
TAP	74	96	4
BRK	74	144	0
TAP	74	192	0
TAP	74	192	4
TAP	74	216	3
TAP	74	216	7
TAP	74	240	2
TAP	74	240	6
TAP	74	264	1
TAP	74	264	5
TAP	74	288	0
TAP	74	288	4
BRK	74	336	0
TAP	75	0	0
TAP	75	0	4
TAP	75	24	1
TAP	75	24	5
TAP	75	48	2
TAP	75	48	6
TAP	75	72	3
TAP	75	72	7
TAP	75	96	0
TAP	75	96	4
BRK	75	144	0
TAP	75	192	0
TAP	75	192	4
TAP	75	216	3
TAP	75	216	7
TAP	75	240	2
TAP	75	240	6
TAP	75	264	1
TAP	75	264	5
TAP	75	288	0
TAP	75	288	4
BRK	75	336	0
TAP	76	0	1
TAP	76	0	6
BRK	77	192	7
BRK	77	288	7
STR	78	0	0
SUR	78	0	0	96	48	5
STR	78	0	1
SCR	78	0	1	96	48	4
STR	78	192	6
SUR	78	192	6	96	48	3
STR	78	192	7
SCR	78	192	7	96	48	2
STR	79	0	4
SUR	79	0	4	96	48	1
STR	79	0	5
SCR	79	0	5	96	48	0
BRK	79	192	2
BRK	79	192	3
STR	80	0	3
SCL	80	0	3	96	72	0
STR	80	72	0
SCL	80	72	0	96	72	5
STR	80	144	5
SCL	80	144	5	96	96	1
TAP	80	240	0
TAP	80	288	0
STR	81	0	4
SCR	81	0	4	96	72	7
STR	81	72	7
SCR	81	72	7	96	72	2
STR	81	144	2
SCR	81	144	2	96	96	6
TAP	81	240	7
TAP	81	288	7
STR	82	0	2
SCL	82	0	2	96	48	7
TAP	82	96	2
STR	82	144	5
SCL	82	144	5	96	48	2
TAP	82	240	5
HLD	82	336	0	96
TAP	83	48	1
TAP	83	96	2
STR	83	144	3
SCL	83	144	3	96	48	7
SCR	83	144	3	96	48	7
STR	84	0	4
SCR	84	0	4	96	48	7
TAP	84	96	2
STR	84	144	1
SCR	84	144	1	96	48	4
TAP	84	240	7
TAP	84	288	6
STR	84	336	5
SCR	84	336	5	96	48	0
TAP	85	48	4
TAP	85	96	3
STR	85	144	2
SCR	85	144	2	96	48	5
TAP	85	240	0
TAP	85	288	7
TAP	85	336	6
HLD	86	0	0	96
HLD	86	0	5	96
HLD	86	144	2	96
HLD	86	144	7	96
TAP	86	288	3
TAP	86	336	4
BST	87	0	3
SI_	87	0	3	96	48	7
BST	87	0	4
SI_	87	0	4	96	48	6
BST	87	96	3
SI_	87	96	3	96	48	1
BST	87	96	4
SI_	87	96	4	96	48	0
BRK	87	192	3
BRK	87	192	4
TAP	87	288	6
TAP	87	288	7
BST	88	0	0
SCR	88	0	0	96	96	4
BST	88	96	4
SCR	88	96	4	96	96	0
BST	88	192	0
SCR	88	192	0	96	96	4
BST	88	288	4
SCR	88	288	4	96	96	0
BST	89	0	0
SCR	89	0	0	96	96	4
BST	89	96	4
SCR	89	96	4	96	96	0
BRK	89	192	0
BRK	89	288	4
BST	90	0	3
SCL	90	0	3	96	48	0
BST	90	0	7
SCL	90	0	7	96	48	4
BRK	90	96	3
BRK	90	96	7
BST	90	192	3
SCR	90	192	3	96	48	6
BST	90	192	7
SCR	90	192	7	96	48	2
BRK	90	288	3
BRK	90	288	7
TAP	91	0	7
TAP	91	12	6
TAP	91	24	5
TAP	91	36	4
TAP	91	48	3
TAP	91	60	2
TAP	91	72	1
TAP	91	84	0
TAP	91	96	7
TAP	91	108	6
TAP	91	120	5
TAP	91	132	4
TAP	91	144	3
TAP	91	156	2
TAP	91	168	1
TAP	91	180	0
TAP	91	192	7
TAP	91	204	6
TAP	91	216	5
TAP	91	228	4
TAP	91	240	3
TAP	91	252	2
TAP	91	264	1
TAP	91	276	0
BRK	91	288	3
BRK	91	288	7
STR	92	0	3
SCL	92	0	3	96	48	0
TAP	92	96	4
STR	92	144	6
SCL	92	144	6	96	48	3
TAP	92	240	0
TAP	92	288	1
STR	92	336	2
SCL	92	336	2	96	48	7
TAP	93	48	3
TAP	93	96	4
STR	93	144	5
SCL	93	144	5	96	48	2
TAP	93	240	7
TAP	93	288	0
TAP	93	336	1
HLD	94	0	2	96
HLD	94	0	7	96
HLD	94	144	0	96
HLD	94	144	5	96
TAP	94	288	4
TAP	94	336	3
TAP	95	0	7
TAP	95	24	6
TAP	95	48	5
TAP	95	72	4
TAP	95	96	3
TAP	95	120	2
TAP	95	144	1
TAP	95	168	0
TAP	95	192	7
TAP	95	204	6
TAP	95	216	5
TAP	95	228	4
TAP	95	240	3
TAP	95	252	2
TAP	95	264	1
TAP	95	276	0
TAP	95	288	7
TAP	95	300	6
TAP	95	312	5
TAP	95	324	4
TAP	95	336	3
TAP	95	348	2
TAP	95	360	1
TAP	95	372	0
TAP	96	0	2
TAP	96	0	7
TAP	96	144	6
TAP	96	144	7
TAP	96	192	0
TAP	96	192	5
TAP	96	336	2
TAP	96	336	6
STR	97	0	2
SCL	97	0	2	96	48	7
STR	97	0	6
SCL	97	0	6	96	48	3
STR	97	96	6
SUL	97	96	6	96	48	0
TAP	97	288	4
TAP	97	288	5
TAP	98	0	3
TAP	98	0	6
TAP	98	144	2
TAP	98	144	3
TAP	98	192	1
TAP	98	192	4
TAP	98	336	1
TAP	98	336	5
STR	99	0	1
SCR	99	0	1	96	48	4
STR	99	0	5
SCR	99	0	5	96	48	0
STR	99	96	1
SUR	99	96	1	96	48	7
BRK	99	240	0
BRK	99	288	0
TAP	100	0	2
TAP	100	0	7
TAP	100	144	0
TAP	100	144	1
TAP	100	192	2
TAP	100	192	7
TAP	100	336	6
TAP	100	336	7
TAP	101	0	0
TAP	101	0	5
TAP	101	48	1
TAP	101	48	4
STR	101	96	2
SI_	101	96	2	96	48	6
STR	101	96	3
SI_	101	96	3	96	48	7
TAP	101	144	1
TAP	101	144	4
TAP	101	192	2
TAP	101	192	3
TAP	101	288	4
TAP	101	288	5
TAP	102	0	3
TAP	102	0	6
TAP	102	144	2
TAP	102	144	3
TAP	102	192	1
TAP	102	192	4
TAP	102	336	0
TAP	102	336	1
TAP	103	0	2
TAP	103	0	7
TAP	103	48	3
TAP	103	48	6
STR	103	96	4
SI_	103	96	4	96	48	0
STR	103	96	5
SI_	103	96	5	96	48	1
TAP	103	144	3
TAP	103	144	6
BRK	103	192	4
BRK	103	192	5

T_REC_TAP	598
T_REC_BRK	57
T_REC_XTP	0
T_REC_HLD	25
T_REC_XHO	0
T_REC_STR	110
T_REC_BST	20
T_REC_XST	0
T_REC_TTP	0
T_REC_THO	0
T_REC_SLD	133
T_REC_ALL	943
T_NUM_TAP	708
T_NUM_BRK	77
T_NUM_HLD	25
T_NUM_SLD	133
T_NUM_ALL	943
T_JUDGE_TAP	785
T_JUDGE_HLD	50
T_JUDGE_SLD	133
T_JUDGE_ALL	968
TTM_EACHPAIRS	202
TTM_SCR_TAP	354000
TTM_SCR_BRK	200200
TTM_SCR_HLD	25000
TTM_SCR_SLD	199500
TTM_SCR_ALL	778700
TTM_SCR_S	747900
TTM_SCR_SS	771000
TTM_RAT_ACV	10099

