VERSION	0.00.00	1.03.00
FES_MODE	0
BPM_DEF	186.000	186.000	186.000	186.000
MET_DEF	4	4
RESOLUTION	384
CLK_DEF	384
COMPATIBLE_CODE	MA2

BPM	0	0	186.000
MET	0	0	4	4

TAP	1	0	1
TAP	1	0	6
TAP	1	144	5
TAP	1	192	4
TAP	1	192	6
TAP	1	336	2
TAP	2	0	1
TAP	2	0	3
TAP	2	96	6
TAP	2	96	7
TAP	2	192	0
TAP	2	192	5
TAP	2	288	3
TAP	2	288	4
TAP	3	0	1
TAP	3	0	6
TAP	3	144	2
TAP	3	192	1
TAP	3	192	3
TAP	3	336	5
TAP	4	0	4
TAP	4	0	6
TAP	4	96	0
TAP	4	96	1
TAP	4	192	2
TAP	4	192	7
TAP	4	288	3
TAP	4	288	4
TAP	5	0	1
TAP	5	0	6
TAP	5	144	5
TAP	5	192	4
TAP	5	192	6
TAP	5	336	2
TAP	6	0	1
TAP	6	0	3
TAP	6	96	6
TAP	6	96	7
TAP	6	192	0
TAP	6	192	5
TAP	6	288	3
TAP	6	288	4
TAP	7	0	1
TAP	7	0	6
TAP	7	144	2
TAP	7	192	1
TAP	7	192	3
TAP	7	336	5
TAP	8	0	4
TAP	8	0	6
TAP	8	96	0
TAP	8	96	1
TAP	8	192	2
TAP	8	192	7
TAP	8	288	3
TAP	8	288	4
HLD	9	0	5	96
TAP	9	96	7
HLD	9	192	2	96
TAP	9	288	0
TAP	10	0	3
STR	10	0	5
SI_	10	0	5	96	48	7
STR	10	192	2
SI_	10	192	2	96	48	0
TAP	10	192	4
HLD	11	0	2	96
TAP	11	96	0
HLD	11	192	5	96
TAP	11	288	7
STR	12	0	2
SI_	12	0	2	96	48	0
TAP	12	0	4
TAP	12	192	3
STR	12	192	5
SI_	12	192	5	96	48	7
TAP	13	0	4
HLD	13	0	5	96
TAP	13	96	7
HLD	13	192	2	96
TAP	13	192	3
TAP	13	288	0
TAP	14	0	3
STR	14	0	4
SI_	14	0	4	96	48	7
STR	14	192	3
SI_	14	192	3	96	48	0
TAP	14	192	4
HLD	15	0	2	96
TAP	15	0	3
TAP	15	96	0
TAP	15	192	4
HLD	15	192	5	96
TAP	15	288	7
TAP	16	0	3
TAP	16	0	4
TAP	16	96	0
TAP	16	96	5
TAP	16	192	2
TAP	16	192	7
TAP	16	288	0
TAP	16	288	5
TAP	17	0	4
TAP	17	0	5
TAP	17	96	4
STR	17	96	5
SI_	17	96	5	96	48	0
TAP	17	192	4
TAP	18	0	2
TAP	18	0	3
STR	18	96	2
SI_	18	96	2	96	48	7
TAP	18	96	3
TAP	18	192	3
TAP	19	0	4
TAP	19	0	5
TAP	19	96	4
TAP	19	96	6
TAP	19	192	3
TAP	19	192	5
TAP	19	288	3
TAP	19	288	4
TAP	20	0	2
TAP	20	0	4
TAP	20	96	2
TAP	20	96	3
TAP	20	192	1
TAP	20	192	3
TAP	21	0	2
TAP	21	0	3
STR	21	96	2
SI_	21	96	2	96	48	7
TAP	21	96	3
TAP	21	192	3
TAP	22	0	4
TAP	22	0	5
TAP	22	96	4
STR	22	96	5
SI_	22	96	5	96	48	0
TAP	22	192	4
TAP	23	0	2
TAP	23	0	3
TAP	23	96	1
TAP	23	96	3
TAP	23	192	2
TAP	23	192	4
TAP	23	288	3
TAP	23	288	4
STR	24	0	2
SLL	24	0	2	96	192	3
STR	24	0	5
SLR	24	0	5	96	192	4
TAP	25	0	5
TAP	25	96	4
TAP	25	96	6
TAP	25	192	2
TAP	25	288	1
TAP	25	288	3
STR	26	0	2
SUL	26	0	2	96	144	5
STR	26	0	6
SCR	26	0	6	96	144	1
TAP	27	0	2
TAP	27	96	1
TAP	27	96	3
TAP	27	192	5
TAP	27	288	4
TAP	27	288	6
STR	28	0	3
SXR	28	0	3	96	240	0
STR	28	0	4
SXL	28	0	4	96	240	7
TAP	29	0	6
TAP	29	96	5
TAP	29	96	7
TAP	29	192	1
TAP	29	288	0
TAP	29	288	2
STR	30	0	4
SV_	30	0	4	96	144	2
STR	30	0	5
SV_	30	0	5	96	144	3
TAP	31	0	1
TAP	31	96	0
TAP	31	96	2
TAP	31	192	6
TAP	31	288	5
TAP	31	288	7
STR	32	0	2
SCL	32	0	2	96	144	6
STR	32	0	3
SV_	32	0	3	96	144	6
TAP	33	0	5
TAP	33	48	5
TAP	33	96	4
TAP	33	144	5
TAP	33	192	2
TAP	33	240	2
TAP	33	288	3
TAP	33	336	2
TAP	34	0	5
TAP	34	48	5
TAP	34	96	4
TAP	34	144	6
TAP	34	192	2
TAP	34	240	2
TAP	34	288	3
TAP	34	336	1
TAP	35	0	5
TAP	35	48	5
TAP	35	96	4
TAP	35	144	5
TAP	35	192	2
TAP	35	240	2
TAP	35	288	3
TAP	35	336	2
TAP	36	0	5
TAP	36	48	5
TAP	36	96	4
TAP	36	144	5
TAP	36	192	3
TAP	36	192	6
TAP	36	288	3
TAP	36	288	4
TAP	37	0	1
TAP	37	48	1
TAP	37	96	0
TAP	37	144	1
TAP	37	192	6
TAP	37	240	6
TAP	37	288	7
TAP	37	336	6
TAP	38	0	1
TAP	38	48	1
TAP	38	96	0
TAP	38	144	2
TAP	38	192	6
TAP	38	240	6
TAP	38	288	7
TAP	38	336	5
STR	39	0	3
SXR	39	0	3	96	240	0
TAP	39	0	4
TAP	39	96	4
TAP	39	192	4
TAP	39	288	4
TAP	40	0	3
STR	40	0	4
SXL	40	0	4	96	240	7
TAP	40	96	3
TAP	40	192	3
TAP	40	288	3
TAP	41	0	3
TAP	41	0	4
TAP	41	96	2
TAP	41	96	5
STR	41	192	1
SI_	41	192	1	96	48	4
STR	41	192	6
SI_	41	192	6	96	48	3
HLD	42	0	1	480
HLD	42	0	6	384
BRK	43	192	2
BRK	43	192	6
BRK	43	288	1
BRK	43	288	5
STR	44	0	3
SCL	44	0	3	96	48	1
STR	44	0	7
SCL	44	0	7	96	48	5
STR	44	192	3
SCL	44	192	3	96	48	1
STR	44	192	7
SCL	44	192	7	96	48	5
STR	45	0	3
SCL	45	0	3	96	48	1
STR	45	0	7
SCL	45	0	7	96	48	5
STR	45	192	3
SCL	45	192	3	96	48	1
STR	45	192	7
SCL	45	192	7	96	48	5
HLD	46	0	3	96
TAP	46	0	7
TAP	46	96	2
TAP	46	144	2
HLD	46	240	0	96
TAP	46	240	4
STR	46	336	1
SUR	46	336	1	96	192	3
TAP	47	288	0
TAP	47	288	6
STR	48	0	2
SCL	48	0	2	96	48	7
TAP	48	0	3
TAP	48	192	4
STR	48	192	5
SCR	48	192	5	96	48	0
STR	49	0	2
SCL	49	0	2	96	48	7
TAP	49	0	3
TAP	49	192	4
STR	49	192	5
SCR	49	192	5	96	48	0
TAP	50	0	2
TAP	50	0	3
TAP	50	96	0
TAP	50	96	2
TAP	50	192	4
TAP	50	192	5
TAP	50	288	5
TAP	50	288	7
STR	51	0	2
SI_	51	0	2	96	48	7
STR	51	0	3
SI_	51	0	3	96	48	6
BRK	51	192	0
BRK	51	192	5
STR	52	0	0
SCR	52	0	0	96	48	2
STR	52	0	4
SCR	52	0	4	96	48	6
STR	52	192	0
SCR	52	192	0	96	48	2
STR	52	192	4
SCR	52	192	4	96	48	6
STR	53	0	0
SCR	53	0	0	96	48	2
STR	53	0	4
SCR	53	0	4	96	48	6
STR	53	192	0
SCR	53	192	0	96	48	2
STR	53	192	4
SCR	53	192	4	96	48	6
TAP	54	0	0
HLD	54	0	4	96
TAP	54	96	5
TAP	54	144	5
TAP	54	240	3
HLD	54	240	7	96
STR	54	336	6
SUL	54	336	6	96	192	4
TAP	55	288	1
TAP	55	288	7
TAP	56	0	4
STR	56	0	5
SCR	56	0	5	96	48	0
TAP	56	192	2
STR	56	192	3
SCR	56	192	3	96	48	6
TAP	57	0	0
STR	57	0	1
SCR	57	0	1	96	48	4
TAP	57	192	6
STR	57	192	7
SCR	57	192	7	96	48	2
TAP	58	0	4
TAP	58	0	5
TAP	58	96	5
TAP	58	96	7
TAP	58	192	2
TAP	58	192	3
TAP	58	288	0
TAP	58	288	2
STR	59	0	0
SXL	59	0	0	96	192	3
STR	59	0	7
SXR	59	0	7	96	192	4
TAP	60	0	1
TAP	60	0	6
TAP	60	144	2
TAP	60	192	1
TAP	60	192	3
TAP	60	336	5
TAP	61	0	4
TAP	61	0	6
TAP	61	96	0
TAP	61	96	1
TAP	61	192	2
TAP	61	192	7
TAP	61	288	3
TAP	61	288	4
TAP	62	0	1
TAP	62	0	6
TAP	62	144	5
TAP	62	192	4
TAP	62	192	6
TAP	62	336	2
TAP	63	0	1
TAP	63	0	3
TAP	63	96	4
TAP	63	96	5
TAP	63	192	3
TAP	63	192	6
BRK	63	240	7
BRK	63	288	7
TAP	64	0	1
TAP	64	0	6
TAP	64	144	2
TAP	64	192	1
TAP	64	192	3
TAP	64	336	5
TAP	65	0	4
TAP	65	0	6
TAP	65	96	0
TAP	65	96	1
TAP	65	192	2
TAP	65	192	7
TAP	65	288	3
TAP	65	288	4
TAP	66	0	1
TAP	66	0	6
TAP	66	144	5
TAP	66	192	4
TAP	66	192	6
TAP	66	336	2
TAP	67	0	1
TAP	67	0	3
TAP	67	96	6
TAP	67	96	7
TAP	67	192	0
TAP	67	192	5
TAP	67	288	3
TAP	67	288	4
TAP	68	0	2
HLD	68	0	5	192
TAP	68	96	4
HLD	68	192	2	192
TAP	68	288	3
HLD	69	0	6	192
TAP	69	96	5
HLD	69	192	1	192
TAP	69	288	2
HLD	70	0	5	192
TAP	70	96	4
HLD	70	192	2	192
TAP	70	288	3
HLD	71	0	6	192
TAP	71	96	7
HLD	71	192	1	192
TAP	71	288	0
HLD	72	0	5	192
TAP	72	96	7
HLD	72	192	3	192
TAP	72	288	7
HLD	73	0	4	192
TAP	73	96	7
HLD	73	192	3	192
TAP	73	288	7
HLD	74	0	4	192
TAP	74	96	0
HLD	74	192	2	192
TAP	74	288	0
HLD	75	0	3	192
TAP	75	96	0
HLD	75	192	2	96
TAP	75	288	0
HLD	76	0	1	384
HLD	76	0	6	480
BRK	77	192	1
BRK	77	192	5
BRK	77	288	2
BRK	77	288	6
STR	78	0	1
SI_	78	0	1	96	48	3
STR	78	96	7
SI_	78	96	7	96	48	5
STR	78	192	0
SI_	78	192	0	96	48	4
STR	78	288	7
SI_	78	288	7	96	48	3
STR	79	0	0
SI_	79	0	0	96	48	2
STR	79	96	6
SI_	79	96	6	96	48	4
BRK	79	192	7
STR	80	0	2
SCL	80	0	2	96	48	7
STR	80	0	6
SCL	80	0	6	96	48	3
STR	80	192	2
SCL	80	192	2	96	48	7
STR	80	192	6
SCL	80	192	6	96	48	3
STR	81	0	2
SCL	81	0	2	96	48	7
STR	81	0	6
SCL	81	0	6	96	48	3
STR	81	192	2
SCL	81	192	2	96	48	7
STR	81	192	6
SCL	81	192	6	96	48	3
TAP	82	0	2
HLD	82	0	6	96
TAP	82	96	5
TAP	82	144	5
TAP	82	240	1
HLD	82	240	5	96
STR	82	336	6
SUR	82	336	6	96	192	0
TAP	83	288	3
TAP	83	288	5
STR	84	0	2
SCL	84	0	2	96	48	7
TAP	84	0	3
TAP	84	192	4
STR	84	192	5
SCR	84	192	5	96	48	0
STR	85	0	2
SCL	85	0	2	96	48	7
TAP	85	0	3
TAP	85	192	4
STR	85	192	5
SCR	85	192	5	96	48	0
TAP	86	0	0
TAP	86	0	1
TAP	86	96	1
TAP	86	96	3
TAP	86	192	6
TAP	86	192	7
TAP	86	288	4
TAP	86	288	6
STR	87	0	4
SI_	87	0	4	96	48	1
STR	87	0	5
SI_	87	0	5	96	48	0
BRK	87	192	2
BRK	87	192	7
STR	88	0	1
SCR	88	0	1	96	48	4
STR	88	0	5
SCR	88	0	5	96	48	0
STR	88	192	1
SCR	88	192	1	96	48	4
STR	88	192	5
SCR	88	192	5	96	48	0
STR	89	0	1
SCR	89	0	1	96	48	4
STR	89	0	5
SCR	89	0	5	96	48	0
STR	89	192	1
SCR	89	192	1	96	48	4
STR	89	192	5
SCR	89	192	5	96	48	0
HLD	90	0	1	96
TAP	90	0	5
TAP	90	96	2
TAP	90	144	2
HLD	90	240	2	96
TAP	90	240	6
STR	90	336	1
SUL	90	336	1	96	192	7
TAP	91	288	2
TAP	91	288	4
TAP	92	0	1
STR	92	0	5
SI_	92	0	5	96	48	0
STR	92	192	2
SI_	92	192	2	96	48	7
TAP	92	192	6
TAP	93	0	1
STR	93	0	4
SI_	93	0	4	96	48	0
STR	93	192	3
SI_	93	192	3	96	48	7
TAP	93	192	6
TAP	94	0	6
TAP	94	0	7
TAP	94	96	4
TAP	94	96	6
TAP	94	192	0
TAP	94	192	1
TAP	94	288	1
TAP	94	288	3
STR	95	0	3
SXR	95	0	3	96	192	0
STR	95	0	4
SXL	95	0	4	96	192	7
TAP	96	0	2
TAP	96	0	5
TAP	96	144	6
TAP	96	192	5
TAP	96	192	7
TAP	96	336	1
TAP	97	0	0
TAP	97	0	2
TAP	97	96	4
TAP	97	96	5
TAP	97	192	3
TAP	97	192	6
TAP	97	288	0
TAP	97	288	7
TAP	98	0	2
TAP	98	0	5
TAP	98	144	1
TAP	98	192	0
TAP	98	192	2
TAP	98	336	6
TAP	99	0	5
TAP	99	0	7
TAP	99	96	2
TAP	99	96	3
TAP	99	192	1
TAP	99	192	4
BRK	99	240	0
BRK	99	288	0
TAP	100	0	2
TAP	100	0	5
TAP	100	144	6
TAP	100	192	5
TAP	100	192	7
TAP	100	336	1
TAP	101	0	0
TAP	101	0	2
TAP	101	96	4
TAP	101	96	5
TAP	101	192	3
TAP	101	192	6
TAP	101	288	0
TAP	101	288	7
TAP	102	0	2
TAP	102	0	5
TAP	102	144	0
TAP	102	144	7
TAP	102	192	0
TAP	102	192	7
TAP	102	336	3
TAP	102	336	4
STR	103	0	3
SI_	103	0	3	96	48	0
STR	103	0	4
SI_	103	0	4	96	48	7
BRK	103	192	1
BRK	103	192	6

T_REC_TAP	395
T_REC_BRK	19
T_REC_XTP	0
T_REC_HLD	36
T_REC_XHO	0
T_REC_STR	92
T_REC_BST	0
T_REC_XST	0
T_REC_TTP	0
T_REC_THO	0
T_REC_SLD	92
T_REC_ALL	634
T_NUM_TAP	487
T_NUM_BRK	19
T_NUM_HLD	36
T_NUM_SLD	92
T_NUM_ALL	634
T_JUDGE_TAP	506
T_JUDGE_HLD	130
T_JUDGE_SLD	92
T_JUDGE_ALL	728
TTM_EACHPAIRS	196
TTM_SCR_TAP	243500
TTM_SCR_BRK	49400
TTM_SCR_HLD	36000
TTM_SCR_SLD	138000
TTM_SCR_ALL	466900
TTM_SCR_S	451050
TTM_SCR_SS	465000
TTM_RAT_ACV	10040

