VERSION	0.00.00	1.03.00
FES_MODE	0
BPM_DEF	186.000	186.000	186.000	186.000
MET_DEF	4	4
RESOLUTION	384
CLK_DEF	384
COMPATIBLE_CODE	MA2

BPM	0	0	186.000
MET	0	0	4	4

TAP	1	0	2
TAP	1	0	3
TAP	1	192	1
TAP	1	192	4
TAP	2	0	2
TAP	2	0	3
TAP	2	96	1
TAP	2	96	4
TAP	2	192	0
TAP	2	192	5
TAP	3	0	4
TAP	3	0	5
TAP	3	192	3
TAP	3	192	6
TAP	4	0	4
TAP	4	0	5
TAP	4	96	3
TAP	4	96	6
TAP	4	192	2
TAP	4	192	7
TAP	5	0	3
TAP	5	0	4
TAP	5	192	2
TAP	5	192	5
TAP	6	0	3
TAP	6	0	4
TAP	6	96	2
TAP	6	96	5
TAP	6	192	1
TAP	6	192	6
TAP	7	0	0
TAP	7	0	7
TAP	7	192	1
TAP	7	192	6
TAP	8	0	0
TAP	8	0	7
TAP	8	96	1
TAP	8	96	6
BRK	8	192	2
BRK	8	192	5
TAP	9	0	2
TAP	9	96	3
TAP	9	192	2
TAP	9	288	3
TAP	10	0	2
TAP	10	96	1
TAP	10	192	0
TAP	10	192	7
TAP	11	0	5
TAP	11	96	4
TAP	11	192	5
TAP	11	288	4
TAP	12	0	5
TAP	12	96	6
TAP	12	192	0
TAP	12	192	7
TAP	13	0	1
TAP	13	96	0
TAP	13	192	1
TAP	13	288	0
TAP	14	0	1
TAP	14	96	2
TAP	14	192	3
TAP	14	192	4
TAP	15	0	6
TAP	15	96	7
TAP	15	192	6
STR	15	288	6
SCL	15	288	6	96	192	3
STR	15	288	7
SCR	15	288	7	96	192	2
TAP	17	0	2
TAP	17	0	3
TAP	17	96	2
TAP	17	96	3
TAP	17	192	1
TAP	17	192	4
TAP	18	0	4
TAP	18	0	5
TAP	18	96	4
TAP	18	96	5
TAP	18	192	3
TAP	18	192	6
TAP	19	0	2
TAP	19	0	3
TAP	19	96	2
TAP	19	96	3
TAP	19	192	4
TAP	19	192	5
TAP	19	288	4
TAP	19	288	5
TAP	20	0	3
TAP	20	0	4
TAP	20	96	3
TAP	20	96	4
TAP	20	192	2
TAP	20	192	5
TAP	21	0	0
TAP	21	0	1
TAP	21	96	0
TAP	21	96	1
TAP	21	192	2
TAP	21	192	7
TAP	22	0	6
TAP	22	0	7
TAP	22	96	6
TAP	22	96	7
TAP	22	192	0
TAP	22	192	5
TAP	23	0	0
TAP	23	0	1
TAP	23	96	0
TAP	23	96	1
TAP	23	192	6
TAP	23	192	7
TAP	23	288	6
TAP	23	288	7
TAP	24	0	0
TAP	24	0	7
TAP	24	96	1
TAP	24	96	6
TAP	24	192	2
TAP	24	192	5
HLD	25	0	2	96
TAP	25	96	3
TAP	25	192	1
TAP	25	192	4
HLD	26	0	5	96
TAP	26	96	4
TAP	26	192	3
TAP	26	192	6
HLD	27	0	2	96
TAP	27	96	3
HLD	27	192	5	96
TAP	27	288	4
TAP	28	0	3
TAP	28	0	4
TAP	28	96	3
TAP	28	96	4
TAP	28	192	2
TAP	28	192	5
HLD	29	0	6	96
TAP	29	96	7
TAP	29	192	0
TAP	29	192	5
HLD	30	0	1	96
TAP	30	96	0
TAP	30	192	2
TAP	30	192	7
HLD	31	0	6	96
TAP	31	96	7
HLD	31	192	1	96
TAP	31	288	0
TAP	32	0	0
TAP	32	0	7
TAP	32	96	1
TAP	32	96	6
BRK	32	192	2
BRK	32	192	5
HLD	33	0	3	192
TAP	33	192	2
HLD	34	0	4	192
TAP	34	192	5
HLD	35	0	2	192
HLD	35	192	1	192
TAP	36	0	0
TAP	36	192	2
TAP	36	192	7
HLD	37	0	7	192
TAP	37	192	6
HLD	38	0	0	192
TAP	38	192	1
HLD	39	0	6	192
HLD	39	192	5	192
HLD	40	0	4	192
TAP	40	192	3
HLD	41	0	2	192
HLD	41	0	5	192
STR	42	0	3
SCL	42	0	3	96	240	0
STR	42	0	4
SCR	42	0	4	96	240	7
BRK	43	192	0
BRK	43	192	7
BRK	43	288	0
BRK	43	288	7
STR	44	0	0
SCR	44	0	0	96	192	3
STR	45	0	4
SCR	45	0	4	96	192	7
TAP	46	0	0
TAP	46	96	1
TAP	46	192	2
TAP	46	288	3
STR	47	0	4
SUL	47	0	4	96	216	3
TAP	48	0	2
TAP	48	96	2
TAP	48	96	3
TAP	48	192	5
TAP	48	288	4
TAP	48	288	5
TAP	49	0	3
TAP	49	0	4
TAP	49	96	2
TAP	49	96	5
TAP	49	192	1
TAP	49	192	6
TAP	50	0	6
TAP	50	96	6
TAP	50	96	7
TAP	50	192	1
TAP	50	288	0
TAP	50	288	1
BRK	51	0	0
BRK	51	96	0
BRK	51	192	0
STR	52	0	7
SCL	52	0	7	96	192	4
STR	53	0	3
SCL	53	0	3	96	192	0
TAP	54	0	7
TAP	54	96	6
TAP	54	192	5
TAP	54	288	4
STR	55	0	3
SUR	55	0	3	96	216	4
TAP	56	0	5
TAP	56	96	4
TAP	56	96	5
TAP	56	192	2
TAP	56	288	2
TAP	56	288	3
TAP	57	0	3
TAP	57	0	4
TAP	57	96	2
TAP	57	96	5
TAP	57	192	1
TAP	57	192	6
TAP	58	0	1
TAP	58	96	0
TAP	58	96	1
TAP	58	192	6
TAP	58	288	6
TAP	58	288	7
STR	59	0	0
SCR	59	0	0	96	192	3
STR	59	0	7
SCL	59	0	7	96	192	4
TAP	60	0	2
TAP	60	0	3
TAP	60	192	1
TAP	60	192	4
TAP	61	0	2
TAP	61	0	3
TAP	61	96	1
TAP	61	96	4
TAP	61	192	0
TAP	61	192	5
TAP	62	0	4
TAP	62	0	5
TAP	62	192	3
TAP	62	192	6
TAP	63	0	4
TAP	63	0	5
TAP	63	96	3
TAP	63	96	6
TAP	63	192	2
TAP	63	192	7
TAP	64	0	3
TAP	64	0	4
TAP	64	192	2
TAP	64	192	5
TAP	65	0	3
TAP	65	0	4
TAP	65	96	2
TAP	65	96	5
TAP	65	192	1
TAP	65	192	6
TAP	66	0	0
TAP	66	0	7
TAP	66	192	1
TAP	66	192	6
TAP	67	0	0
TAP	67	0	7
TAP	67	96	1
TAP	67	96	6
BRK	67	192	2
BRK	67	192	5
TAP	68	0	2
TAP	68	96	3
TAP	68	192	2
TAP	68	288	3
STR	69	0	2
SCL	69	0	2	96	144	7
TAP	70	0	5
TAP	70	96	4
TAP	70	192	5
TAP	70	288	4
STR	71	0	5
SCR	71	0	5	96	144	0
TAP	72	0	1
TAP	72	96	0
TAP	72	192	1
TAP	72	288	0
STR	73	0	1
SCR	73	0	1	96	144	4
TAP	74	0	7
TAP	74	96	6
TAP	74	192	5
TAP	74	288	4
TAP	75	0	3
TAP	75	96	2
TAP	75	192	1
TAP	75	288	0
STR	76	0	0
SCR	76	0	0	96	240	3
STR	76	0	7
SCL	76	0	7	96	240	4
BRK	77	192	2
BRK	77	192	5
BRK	77	288	2
BRK	77	288	5
TAP	78	0	2
TAP	78	0	3
TAP	78	96	2
TAP	78	96	3
TAP	78	192	4
TAP	78	192	5
TAP	78	288	4
TAP	78	288	5
TAP	79	0	3
TAP	79	0	4
TAP	79	96	2
TAP	79	96	5
TAP	79	192	1
TAP	79	192	6
STR	80	0	1
SCR	80	0	1	96	192	4
STR	81	0	5
SCR	81	0	5	96	192	0
TAP	82	0	1
TAP	82	96	2
TAP	82	192	3
TAP	82	288	4
STR	83	0	5
SUL	83	0	5	96	216	4
TAP	84	0	2
TAP	84	96	2
TAP	84	96	3
TAP	84	192	5
TAP	84	288	4
TAP	84	288	5
TAP	85	0	3
TAP	85	0	4
TAP	85	96	2
TAP	85	96	5
TAP	85	192	1
TAP	85	192	6
TAP	86	0	6
TAP	86	96	6
TAP	86	96	7
TAP	86	192	1
TAP	86	288	0
TAP	86	288	1
BRK	87	0	0
BRK	87	96	0
BRK	87	192	0
STR	88	0	6
SCL	88	0	6	96	192	3
STR	89	0	2
SCL	89	0	2	96	192	7
TAP	90	0	6
TAP	90	96	5
TAP	90	192	4
TAP	90	288	3
STR	91	0	2
SUR	91	0	2	96	216	3
TAP	92	0	5
TAP	92	96	4
TAP	92	96	5
TAP	92	192	2
TAP	92	288	2
TAP	92	288	3
TAP	93	0	3
TAP	93	0	4
TAP	93	96	2
TAP	93	96	5
TAP	93	192	1
TAP	93	192	6
TAP	94	0	1
TAP	94	96	0
TAP	94	96	1
TAP	94	192	6
TAP	94	288	6
TAP	94	288	7
STR	95	0	0
SCR	95	0	0	96	192	3
STR	95	0	7
SCL	95	0	7	96	192	4
TAP	96	0	4
TAP	96	0	5
TAP	96	192	2
TAP	96	192	7
TAP	97	0	4
TAP	97	0	5
TAP	97	96	3
TAP	97	96	6
TAP	97	192	0
TAP	97	192	1
TAP	98	0	2
TAP	98	0	3
TAP	98	192	0
TAP	98	192	5
TAP	99	0	2
TAP	99	0	3
TAP	99	96	1
TAP	99	96	4
TAP	99	192	6
TAP	99	192	7
TAP	100	0	0
TAP	100	0	7
TAP	100	192	2
TAP	100	192	5
TAP	101	0	0
TAP	101	0	7
TAP	101	96	1
TAP	101	96	6
TAP	101	192	3
TAP	101	192	4
TAP	102	0	3
TAP	102	0	4
TAP	102	192	1
TAP	102	192	6
TAP	103	0	3
TAP	103	0	4
TAP	103	96	2
TAP	103	96	5
BRK	103	192	0
BRK	103	192	7

T_REC_TAP	349
T_REC_BRK	22
T_REC_XTP	0
T_REC_HLD	19
T_REC_XHO	0
T_REC_STR	25
T_REC_BST	0
T_REC_XST	0
T_REC_TTP	0
T_REC_THO	0
T_REC_SLD	25
T_REC_ALL	440
T_NUM_TAP	374
T_NUM_BRK	22
T_NUM_HLD	19
T_NUM_SLD	25
T_NUM_ALL	440
T_JUDGE_TAP	396
T_JUDGE_HLD	60
T_JUDGE_SLD	25
T_JUDGE_ALL	481
TTM_EACHPAIRS	145
TTM_SCR_TAP	187000
TTM_SCR_BRK	57200
TTM_SCR_HLD	19000
TTM_SCR_SLD	37500
TTM_SCR_ALL	300700
TTM_SCR_S	289550
TTM_SCR_SS	298500
TTM_RAT_ACV	10073

