VERSION	0.00.00	1.03.00
FES_MODE	0
BPM_DEF	186.000	186.000	186.000	186.000
MET_DEF	4	4
RESOLUTION	384
CLK_DEF	384
COMPATIBLE_CODE	MA2

BPM	0	0	186.000
MET	0	0	4	4

TAP	1	0	0
TAP	1	192	0
TAP	2	0	0
TAP	2	96	0
TAP	2	192	0
TAP	3	0	7
TAP	3	192	7
TAP	4	0	7
TAP	4	96	7
TAP	4	192	7
TAP	5	0	0
TAP	5	0	1
TAP	5	192	0
TAP	5	192	1
TAP	6	0	1
TAP	6	96	1
TAP	6	192	1
TAP	7	0	6
TAP	7	0	7
TAP	7	192	6
TAP	7	192	7
TAP	8	0	6
TAP	8	96	6
BRK	8	192	6
TAP	9	0	0
TAP	9	192	0
TAP	10	0	1
TAP	10	192	1
TAP	11	0	2
TAP	11	192	2
TAP	12	0	3
TAP	12	96	3
TAP	12	192	3
TAP	13	0	4
TAP	13	192	4
TAP	14	0	5
TAP	14	192	5
TAP	15	0	6
TAP	15	192	6
TAP	16	0	7
TAP	16	96	7
TAP	16	192	7
TAP	17	0	0
TAP	17	96	0
TAP	17	192	1
TAP	18	0	7
TAP	18	96	7
TAP	18	192	6
TAP	19	0	0
TAP	19	0	7
TAP	19	192	0
TAP	19	192	7
TAP	20	0	0
TAP	20	96	7
TAP	20	192	0
TAP	21	0	7
TAP	21	96	7
TAP	21	192	6
TAP	22	0	0
TAP	22	96	0
TAP	22	192	1
TAP	23	0	0
TAP	23	0	7
TAP	23	192	0
TAP	23	192	7
TAP	24	0	7
TAP	24	96	0
TAP	24	192	7
TAP	25	0	6
TAP	25	192	6
TAP	26	0	5
TAP	26	96	5
TAP	26	192	5
TAP	27	0	4
TAP	27	192	4
TAP	28	0	3
TAP	28	96	4
TAP	28	192	3
TAP	29	0	2
TAP	29	192	2
TAP	30	0	1
TAP	30	96	1
TAP	30	192	1
TAP	31	0	0
TAP	31	192	0
TAP	32	0	7
TAP	32	96	0
BRK	32	192	7
STR	33	0	0
SI_	33	0	0	96	288	3
STR	35	0	4
SI_	35	0	4	96	288	7
STR	37	0	0
SCR	37	0	0	96	288	3
STR	39	0	4
SCR	39	0	4	96	288	7
HLD	41	0	0	384
HLD	41	0	7	384
TAP	43	0	0
TAP	43	96	0
BRK	43	192	0
TAP	44	0	0
TAP	44	96	0
TAP	44	192	0
TAP	45	0	1
TAP	45	96	1
TAP	45	192	1
TAP	46	0	2
TAP	46	0	3
TAP	46	192	2
TAP	46	192	3
TAP	47	0	3
TAP	47	96	4
TAP	47	192	3
TAP	48	0	4
TAP	48	96	4
TAP	48	192	4
TAP	49	0	5
TAP	49	96	5
TAP	49	192	5
TAP	50	0	6
TAP	50	0	7
TAP	50	192	6
TAP	50	192	7
TAP	51	0	7
TAP	51	96	0
BRK	51	192	7
TAP	52	0	7
TAP	52	96	7
TAP	52	192	7
TAP	53	0	6
TAP	53	96	6
TAP	53	192	6
TAP	54	0	4
TAP	54	0	5
TAP	54	192	4
TAP	54	192	5
TAP	55	0	4
TAP	55	96	3
TAP	55	192	4
TAP	56	0	3
TAP	56	96	3
TAP	56	192	3
TAP	57	0	2
TAP	57	96	2
TAP	57	192	2
TAP	58	0	0
TAP	58	0	1
TAP	58	192	0
TAP	58	192	1
HLD	59	0	0	192
HLD	59	0	7	192
TAP	60	0	0
TAP	60	0	1
TAP	60	192	6
TAP	60	192	7
TAP	61	0	0
TAP	61	96	0
TAP	61	192	0
TAP	62	0	6
TAP	62	0	7
TAP	62	192	0
TAP	62	192	1
TAP	63	0	7
TAP	63	96	7
TAP	63	192	7
TAP	64	0	1
TAP	64	0	7
TAP	64	192	0
TAP	64	192	6
TAP	65	0	0
TAP	65	0	1
TAP	65	96	0
TAP	65	96	1
TAP	65	192	0
TAP	65	192	1
TAP	66	0	0
TAP	66	0	6
TAP	66	192	1
TAP	66	192	7
TAP	67	0	6
TAP	67	0	7
TAP	67	96	6
TAP	67	96	7
BRK	67	192	6
BRK	67	192	7
TAP	68	0	0
TAP	68	192	0
TAP	69	0	1
TAP	69	96	1
TAP	69	192	1
TAP	70	0	2
TAP	70	192	2
TAP	71	0	3
TAP	71	96	4
TAP	71	192	3
TAP	72	0	4
TAP	72	192	4
TAP	73	0	5
TAP	73	96	5
TAP	73	192	5
TAP	74	0	6
TAP	74	96	6
TAP	74	192	6
TAP	75	0	7
TAP	75	96	7
TAP	75	192	7
BRK	76	0	0
BRK	76	0	7
TAP	77	0	0
TAP	77	96	0
TAP	77	192	0
STR	78	0	0
SI_	78	0	0	96	288	3
TAP	80	0	4
TAP	80	0	5
TAP	80	192	4
TAP	80	192	5
TAP	81	0	6
TAP	81	0	7
TAP	81	192	6
TAP	81	192	7
TAP	82	0	0
TAP	82	0	1
TAP	82	192	0
TAP	82	192	1
TAP	83	0	2
TAP	83	0	3
TAP	83	192	2
TAP	83	192	3
TAP	84	0	4
TAP	84	96	4
TAP	84	192	4
TAP	85	0	3
TAP	85	96	3
TAP	85	192	3
TAP	86	0	3
TAP	86	0	5
TAP	86	192	2
TAP	86	192	4
TAP	87	0	3
TAP	87	0	4
TAP	87	96	3
TAP	87	96	4
BRK	87	192	3
BRK	87	192	4
TAP	88	0	2
TAP	88	0	3
TAP	88	192	2
TAP	88	192	3
TAP	89	0	0
TAP	89	0	1
TAP	89	192	0
TAP	89	192	1
TAP	90	0	6
TAP	90	0	7
TAP	90	192	6
TAP	90	192	7
TAP	91	0	4
TAP	91	0	5
TAP	91	192	4
TAP	91	192	5
TAP	92	0	3
TAP	92	96	3
TAP	92	192	3
TAP	93	0	4
TAP	93	96	4
TAP	93	192	4
TAP	94	0	2
TAP	94	0	4
TAP	94	192	3
TAP	94	192	5
HLD	95	0	2	192
HLD	95	0	5	192
TAP	96	0	2
TAP	96	0	3
TAP	96	192	2
TAP	96	192	3
TAP	97	0	1
TAP	97	96	1
TAP	97	192	1
TAP	98	0	4
TAP	98	0	5
TAP	98	192	4
TAP	98	192	5
TAP	99	0	6
TAP	99	96	6
TAP	99	192	6
TAP	100	0	6
TAP	100	0	7
TAP	100	192	6
TAP	100	192	7
TAP	101	0	0
TAP	101	96	7
TAP	101	192	0
TAP	102	0	0
TAP	102	0	1
TAP	102	192	0
TAP	102	192	1
TAP	103	0	7
TAP	103	96	0
BRK	103	192	7

T_REC_TAP	275
T_REC_BRK	11
T_REC_XTP	0
T_REC_HLD	6
T_REC_XHO	0
T_REC_STR	5
T_REC_BST	0
T_REC_XST	0
T_REC_TTP	0
T_REC_THO	0
T_REC_SLD	5
T_REC_ALL	302
T_NUM_TAP	280
T_NUM_BRK	11
T_NUM_HLD	6
T_NUM_SLD	5
T_NUM_ALL	302
T_JUDGE_TAP	291
T_JUDGE_HLD	32
T_JUDGE_SLD	5
T_JUDGE_ALL	328
TTM_EACHPAIRS	65
TTM_SCR_TAP	140000
TTM_SCR_BRK	28600
TTM_SCR_HLD	6000
TTM_SCR_SLD	7500
TTM_SCR_ALL	182100
TTM_SCR_S	175600
TTM_SCR_SS	181000
TTM_RAT_ACV	10060

