VERSION	0.00.00	1.03.00
FES_MODE	0
BPM_DEF	138.000	138.000	138.000	138.000
MET_DEF	4	4
RESOLUTION	384
CLK_DEF	384
COMPATIBLE_CODE	MA2

BPM	0	0	138.000
MET	0	0	4	4

BRK	6	0	2
BRK	6	0	5
TAP	6	64	3
TAP	6	80	4
TAP	6	96	3
TAP	6	144	4
TAP	6	144	5
TAP	6	192	3
TAP	6	192	4
TAP	6	224	3
TAP	6	224	4
TAP	6	256	3
TAP	6	256	4
BRK	6	288	1
BRK	6	288	6
TAP	7	0	0
TAP	7	48	1
TAP	7	96	2
TAP	7	144	3
TAP	7	192	3
TAP	7	216	4
TAP	7	264	4
TAP	7	288	5
TAP	7	336	6
TAP	7	336	7
TAP	8	0	0
TAP	8	0	1
TAP	8	48	2
TAP	8	96	2
TAP	8	120	3
TAP	8	168	3
HLD	8	192	4	48
HLD	8	288	3	48
HLD	8	288	5	48
TAP	9	0	7
TAP	9	48	6
TAP	9	96	5
TAP	9	144	4
TAP	9	192	4
TAP	9	216	3
TAP	9	264	3
TAP	9	288	2
TAP	9	336	0
TAP	9	336	1
HLD	10	0	7	96
TAP	10	72	1
TAP	10	96	1
TAP	10	144	2
TAP	10	144	5
TAP	10	192	0
TAP	10	192	7
TAP	10	224	0
TAP	10	224	7
TAP	10	256	0
TAP	10	256	7
BRK	10	288	1
BRK	10	288	6
TAP	11	0	0
TAP	11	48	1
TAP	11	96	2
TAP	11	144	3
TAP	11	192	3
TAP	11	216	4
TAP	11	264	4
TAP	11	288	5
TAP	11	336	6
TAP	11	336	7
TAP	12	0	0
TAP	12	0	1
TAP	12	48	2
TAP	12	96	2
TAP	12	120	1
TAP	12	168	1
STR	12	192	0
SI_	12	192	0	96	48	4
TAP	12	288	0
TAP	13	0	7
TAP	13	48	6
TAP	13	96	5
TAP	13	144	4
TAP	13	192	4
TAP	13	216	3
TAP	13	264	3
TAP	13	288	2
TAP	13	336	0
TAP	13	336	1
TAP	14	0	6
TAP	14	0	7
TAP	14	48	5
TAP	14	96	5
TAP	14	120	6
TAP	14	168	6
STR	14	192	7
SI_	14	192	7	96	48	3
TAP	14	288	7
TAP	15	0	4
TAP	15	48	5
TAP	15	96	3
TAP	15	144	2
TAP	15	192	6
TAP	15	216	7
TAP	15	264	1
TAP	15	288	0
TAP	15	336	2
TAP	15	336	7
TAP	16	0	0
TAP	16	48	1
TAP	16	96	5
TAP	16	120	4
TAP	16	168	2
STR	16	192	3
SI_	16	192	3	96	48	7
TAP	16	288	3
TAP	17	0	0
TAP	17	48	1
TAP	17	96	7
TAP	17	144	6
TAP	17	192	2
TAP	17	216	3
TAP	17	264	5
TAP	17	288	4
TAP	17	336	3
TAP	17	336	6
TAP	18	0	4
TAP	18	0	5
TAP	18	48	6
TAP	18	72	7
TAP	18	96	6
TAP	18	120	7
STR	18	168	3
SLL	18	168	3	96	48	7
SLR	18	168	3	96	48	7
HLD	19	0	5	72
STR	19	72	3
SV_	19	72	3	96	24	1
STR	19	144	6
SI_	19	144	6	96	24	3
TAP	19	240	0
TAP	19	288	0
HLD	20	0	2	72
STR	20	72	4
SV_	20	72	4	96	24	6
STR	20	144	1
SI_	20	144	1	96	24	4
TAP	20	240	7
TAP	20	288	7
HLD	21	0	5	72
STR	21	72	4
SCL	21	72	4	96	24	1
STR	21	144	6
SUR	21	144	6	96	24	3
TAP	21	240	0
TAP	21	288	0
HLD	22	0	2	72
STR	22	72	3
SCR	22	72	3	96	24	6
STR	22	144	1
SUL	22	144	1	96	24	4
TAP	22	240	7
TAP	22	288	7
TAP	23	0	0
TAP	23	48	6
HLD	23	72	6	72
TAP	23	144	4
TAP	23	192	7
TAP	23	240	1
HLD	23	264	1	72
TAP	23	336	3
TAP	24	0	2
TAP	24	0	3
TAP	24	72	4
TAP	24	72	5
STR	24	144	6
SI_	24	144	6	96	48	3
STR	24	144	7
SI_	24	144	7	96	48	2
TAP	24	240	6
TAP	24	240	7
TAP	25	0	3
TAP	25	48	3
TAP	25	96	5
TAP	25	120	4
TAP	25	144	5
TAP	25	168	4
TAP	25	216	2
HLD	25	240	3	96
TAP	25	336	2
HLD	26	0	2	48
HLD	26	0	4	48
HLD	26	96	3	48
HLD	26	96	6	48
HLD	26	192	0	48
HLD	26	192	4	48
BRK	26	264	1
BRK	26	264	6
TAP	27	0	6
TAP	27	16	7
TAP	27	32	6
TAP	27	48	7
TAP	27	64	6
TAP	27	80	7
TAP	27	96	6
TAP	27	144	2
TAP	27	160	3
TAP	27	176	2
TAP	27	192	3
TAP	27	208	2
TAP	27	224	3
TAP	27	240	2
TAP	27	288	1
TAP	27	288	6
BRK	28	0	0
BRK	28	0	7
TAP	28	48	6
TAP	28	96	4
TAP	28	96	5
TAP	28	144	3
TAP	28	192	2
TAP	28	216	2
HLD	28	264	6	72
TAP	28	336	1
TAP	28	360	0
TAP	29	0	1
TAP	29	24	0
TAP	29	72	2
TAP	29	72	3
TAP	29	120	4
TAP	29	120	5
TAP	29	168	6
TAP	29	168	7
TAP	29	216	0
TAP	29	216	1
TAP	29	264	6
TAP	29	288	7
TAP	29	312	6
TAP	29	336	7
TAP	30	0	2
STR	30	0	4
SCR	30	0	4	96	72	0
STR	30	72	0
SCL	30	72	0	96	72	4
TAP	30	192	1
TAP	30	240	2
TAP	30	288	3
TAP	30	336	2
HLD	31	0	2	48
HLD	31	0	3	48
TAP	31	96	5
TAP	31	96	7
STR	31	168	0
SI_	31	168	0	96	48	4
TAP	31	168	1
TAP	31	240	7
TAP	31	288	7
TAP	32	0	0
TAP	32	0	7
TAP	32	48	1
TAP	32	96	2
TAP	32	96	3
TAP	32	144	4
TAP	32	192	5
TAP	32	216	5
HLD	32	264	1	72
TAP	32	336	6
TAP	32	360	7
TAP	33	0	6
TAP	33	24	7
TAP	33	72	4
TAP	33	72	5
TAP	33	120	2
TAP	33	120	3
TAP	33	168	0
TAP	33	168	1
TAP	33	216	6
TAP	33	216	7
TAP	33	264	1
TAP	33	288	0
TAP	33	312	1
TAP	33	336	0
STR	34	0	3
SCL	34	0	3	96	72	7
TAP	34	0	5
STR	34	72	7
SCR	34	72	7	96	72	3
TAP	34	192	6
TAP	34	240	5
TAP	34	288	4
TAP	34	336	5
HLD	35	0	4	48
HLD	35	0	5	48
TAP	35	96	0
TAP	35	96	2
TAP	35	168	6
STR	35	168	7
SI_	35	168	7	96	48	3
TAP	35	240	0
TAP	35	288	0
TAP	35	336	1
STR	36	0	1
SCR	36	0	1	96	72	5
STR	36	72	5
SCR	36	72	5	96	72	1
STR	36	144	1
SI_	36	144	1	96	48	3
TAP	36	240	6
TAP	36	336	1
TAP	36	336	5
TAP	36	360	2
TAP	36	360	6
TAP	37	0	3
TAP	37	0	7
TAP	37	24	0
TAP	37	24	4
TAP	37	72	3
TAP	37	72	7
TAP	37	120	3
TAP	37	144	4
TAP	37	168	3
TAP	37	216	2
TAP	37	264	5
TAP	37	312	0
BRK	37	336	7
TAP	38	0	1
TAP	38	0	3
TAP	38	48	2
TAP	38	96	6
TAP	38	120	7
TAP	38	168	6
HLD	38	192	0	72
HLD	38	264	2	72
TAP	38	336	1
TAP	39	0	0
TAP	39	0	2
TAP	39	48	1
TAP	39	96	2
TAP	39	120	3
TAP	39	168	6
TAP	39	192	7
TAP	39	216	6
TAP	39	240	7
TAP	39	264	5
TAP	39	288	0
TAP	39	312	5
TAP	39	336	0
TAP	40	0	4
TAP	40	0	6
TAP	40	48	5
TAP	40	96	1
TAP	40	120	0
TAP	40	168	1
HLD	40	192	7	72
HLD	40	264	5	72
TAP	40	336	6
TAP	41	0	5
TAP	41	0	7
TAP	41	48	6
TAP	41	96	5
TAP	41	120	4
TAP	41	168	2
TAP	41	192	3
TAP	41	216	2
TAP	41	240	3
TAP	41	264	1
TAP	41	288	4
TAP	41	312	1
TAP	41	336	4
TAP	42	0	0
TAP	42	0	2
TAP	42	48	1
TAP	42	96	5
TAP	42	120	4
TAP	42	168	6
HLD	42	192	2	72
HLD	42	264	0	72
TAP	42	336	1
TAP	43	0	0
TAP	43	0	2
TAP	43	48	1
TAP	43	96	6
TAP	43	120	7
TAP	43	168	1
TAP	43	192	0
TAP	43	216	2
TAP	43	240	7
TAP	43	264	3
TAP	43	288	6
TAP	43	312	4
TAP	43	336	5
TAP	44	0	5
TAP	44	0	7
TAP	44	48	6
TAP	44	96	2
TAP	44	120	3
TAP	44	168	1
HLD	44	192	5	72
HLD	44	264	7	72
TAP	44	336	6
TAP	45	0	6
TAP	45	0	7
TAP	45	48	5
TAP	45	72	4
TAP	45	96	6
TAP	45	120	3
HLD	45	144	7	48
TAP	45	192	1
TAP	45	216	0
TAP	45	240	2
TAP	45	264	7
TAP	45	288	3
TAP	45	312	6
TAP	45	336	4
TAP	45	360	5
HLD	46	0	4	384
HLD	47	0	5	192
HLD	47	192	4	72
HLD	47	264	3	72
HLD	47	336	2	48
HLD	48	0	1	192
HLD	48	192	2	72
HLD	48	264	3	72
HLD	48	336	4	48
HLD	49	0	5	192
HLD	49	192	1	96
BRK	49	288	6
STR	50	0	2
SI_	50	0	2	96	48	4
STR	50	0	6
SI_	50	0	6	96	48	0
TAP	50	96	2
TAP	50	96	6
STR	50	192	3
SI_	50	192	3	96	48	5
STR	50	192	7
SI_	50	192	7	96	48	1
TAP	50	288	3
TAP	50	288	7
STR	51	0	0
SI_	51	0	0	96	48	5
STR	51	0	4
SI_	51	0	4	96	48	1
TAP	51	96	0
TAP	51	96	4
STR	51	192	2
SI_	51	192	2	96	48	7
STR	51	192	6
SI_	51	192	6	96	48	3
TAP	51	288	2
TAP	51	288	6
TAP	52	0	3
TAP	52	0	4
TAP	52	48	3
TAP	52	48	4
TAP	52	96	2
TAP	52	120	3
TAP	52	144	2
TAP	52	168	3
TAP	52	216	5
HLD	52	240	4	96
TAP	52	336	5
HLD	53	0	3	48
HLD	53	0	5	48
HLD	53	96	1	48
HLD	53	96	4	48
HLD	53	192	3	48
HLD	53	192	7	48
BRK	53	264	1
BRK	53	264	6
TAP	54	0	5
TAP	54	16	4
TAP	54	32	5
TAP	54	48	4
TAP	54	64	5
TAP	54	80	4
TAP	54	96	5
TAP	54	144	2
TAP	54	144	3
TAP	54	192	1
TAP	54	208	0
TAP	54	224	1
TAP	54	240	0
TAP	54	256	1
TAP	54	272	0
TAP	54	288	1
TAP	54	336	2
TAP	54	336	7
BRK	55	0	3
BRK	55	0	4
TAP	55	48	5
TAP	55	96	0
TAP	55	96	1
TAP	55	144	2
TAP	55	192	0
TAP	55	192	6
TAP	55	216	0
TAP	55	216	6
HLD	55	264	5	72
TAP	55	336	1
TAP	55	360	7
TAP	56	0	1
TAP	56	24	7
TAP	56	72	2
TAP	56	72	3
TAP	56	120	4
TAP	56	120	5
TAP	56	168	0
TAP	56	168	7
TAP	56	216	3
TAP	56	216	4
TAP	56	264	2
TAP	56	288	3
TAP	56	312	2
TAP	56	336	3
TAP	57	0	1
STR	57	0	4
SCR	57	0	4	96	72	0
STR	57	72	0
SUL	57	72	0	96	72	4
TAP	57	192	1
TAP	57	240	2
TAP	57	288	3
TAP	57	336	0
TAP	57	336	1
HLD	58	0	0	48
HLD	58	0	1	48
TAP	58	96	4
TAP	58	96	6
STR	58	168	4
SI_	58	168	4	96	48	0
TAP	58	168	5
TAP	58	240	1
TAP	58	288	1
TAP	59	0	3
TAP	59	0	4
TAP	59	48	2
TAP	59	96	6
TAP	59	96	7
TAP	59	144	5
TAP	59	192	1
TAP	59	192	7
TAP	59	216	1
TAP	59	216	7
HLD	59	264	2	72
TAP	59	336	6
TAP	59	360	0
TAP	60	0	6
TAP	60	24	0
TAP	60	72	4
TAP	60	72	5
TAP	60	120	2
TAP	60	120	3
TAP	60	168	0
TAP	60	168	7
TAP	60	216	3
TAP	60	216	4
TAP	60	264	5
TAP	60	288	4
TAP	60	312	5
TAP	60	336	4
STR	61	0	3
SCL	61	0	3	96	72	7
TAP	61	0	6
STR	61	72	7
SUR	61	72	7	96	72	3
TAP	61	192	6
TAP	61	240	5
TAP	61	288	4
TAP	61	336	6
TAP	61	336	7
HLD	62	0	6	48
HLD	62	0	7	48
TAP	62	96	1
TAP	62	96	3
TAP	62	168	2
STR	62	168	3
SI_	62	168	3	96	48	7
TAP	62	240	6
TAP	62	288	6
BST	63	0	0
SI_	63	0	0	96	48	4
STR	63	48	7
SI_	63	48	7	96	48	3
TAP	63	96	0
TAP	63	144	7
TAP	63	192	1
TAP	63	216	1
HLD	63	264	6	72
TAP	63	336	1
TAP	63	360	0
TAP	64	0	1
TAP	64	24	0
STR	64	72	1
SI_	64	72	1	96	48	5
STR	64	120	5
SI_	64	120	5	96	48	0
STR	64	168	0
SCR	64	168	0	96	72	3
TAP	64	216	7
TAP	64	264	4
TAP	64	288	5
TAP	64	312	6
TAP	64	336	7
STR	65	0	7
SCL	65	0	7	96	72	3
STR	65	72	3
SXL	65	72	3	96	120	6
TAP	65	192	2
TAP	65	240	1
TAP	65	288	0
TAP	65	336	0
TAP	65	336	7
HLD	66	0	0	48
HLD	66	0	7	48
TAP	66	96	4
TAP	66	96	6
STR	66	168	4
SI_	66	168	4	96	48	0
TAP	66	168	5
TAP	66	240	1
TAP	66	288	1
BST	67	0	6
SI_	67	0	6	96	48	3
STR	67	48	1
SI_	67	48	1	96	48	4
TAP	67	96	6
TAP	67	144	1
TAP	67	192	6
TAP	67	216	6
HLD	67	264	1	72
TAP	67	336	6
TAP	67	360	7
TAP	68	0	6
TAP	68	24	7
STR	68	72	6
SI_	68	72	6	96	48	2
STR	68	120	2
SI_	68	120	2	96	48	7
STR	68	168	7
SCL	68	168	7	96	72	4
TAP	68	216	0
TAP	68	264	3
TAP	68	288	2
TAP	68	312	1
TAP	68	336	0
STR	69	0	0
SCR	69	0	0	96	72	4
STR	69	72	4
SXR	69	72	4	96	120	1
TAP	69	192	5
TAP	69	240	6
TAP	69	288	7
TAP	69	336	0
TAP	69	336	7
HLD	70	0	0	48
HLD	70	0	7	48
TAP	70	96	1
TAP	70	96	3
TAP	70	168	2
STR	70	168	3
SI_	70	168	3	96	48	7
TAP	70	240	6
TAP	70	288	6
TAP	70	336	1
STR	71	0	1
SCR	71	0	1	96	72	5
STR	71	72	5
SCR	71	72	5	96	72	1
STR	71	144	1
SI_	71	144	1	96	48	3
TAP	71	240	5
TAP	71	336	1
TAP	71	336	5
TAP	71	360	2
TAP	71	360	6
TAP	72	0	3
TAP	72	0	7
TAP	72	24	0
TAP	72	24	4
TAP	72	72	3
TAP	72	72	7
TAP	72	120	2
TAP	72	120	6
TAP	72	144	1
TAP	72	144	5
TAP	72	168	0
TAP	72	168	4
TAP	72	216	2
TAP	72	216	3
TAP	72	264	0
TAP	72	264	7
TAP	72	312	2
TAP	72	312	5
BST	72	336	2
SXR	72	336	2	96	240	4
BST	72	336	5
SXL	72	336	5	96	240	3
TAP	74	0	0
TAP	74	0	5
TAP	74	48	6
TAP	74	72	7
TAP	74	120	5
TAP	74	144	4
TAP	74	192	2
TAP	74	216	3
TAP	74	264	1
TAP	74	288	0
TAP	74	312	2
TAP	74	336	7
TAP	75	0	1
TAP	75	0	4
TAP	75	48	2
TAP	75	72	3
TAP	75	120	1
TAP	75	144	0
TAP	75	192	6
TAP	75	216	7
TAP	75	264	5
TAP	75	288	4
TAP	75	312	6
TAP	75	336	3
TAP	76	0	2
TAP	76	0	7
TAP	76	48	1
TAP	76	72	0
TAP	76	120	2
TAP	76	144	3
TAP	76	192	5
TAP	76	216	4
TAP	76	264	6
TAP	76	288	7
TAP	76	312	5
TAP	76	336	0
TAP	77	0	0
HLD	77	0	7	96
TAP	77	16	1
TAP	77	32	2
TAP	77	48	3
TAP	77	64	4
TAP	77	80	5
TAP	77	96	6
BRK	77	144	0
BRK	77	144	1
TAP	77	192	3
TAP	77	216	5
TAP	77	240	1
HLD	77	288	0	48
HLD	77	288	4	48
BRK	77	360	2
BRK	77	360	6

T_REC_TAP	546
T_REC_BRK	20
T_REC_XTP	0
T_REC_HLD	65
T_REC_XHO	0
T_REC_STR	54
T_REC_BST	4
T_REC_XST	0
T_REC_TTP	0
T_REC_THO	0
T_REC_SLD	59
T_REC_ALL	748
T_NUM_TAP	600
T_NUM_BRK	24
T_NUM_HLD	65
T_NUM_SLD	59
T_NUM_ALL	748
T_JUDGE_TAP	624
T_JUDGE_HLD	110
T_JUDGE_SLD	59
T_JUDGE_ALL	793
TTM_EACHPAIRS	133
TTM_SCR_TAP	300000
TTM_SCR_BRK	62400
TTM_SCR_HLD	65000
TTM_SCR_SLD	88500
TTM_SCR_ALL	515900
TTM_SCR_S	498100
TTM_SCR_SS	513500
TTM_RAT_ACV	10046

