VERSION	0.00.00	1.03.00
FES_MODE	0
BPM_DEF	138.000	138.000	138.000	138.000
MET_DEF	4	4
RESOLUTION	384
CLK_DEF	384
COMPATIBLE_CODE	MA2

BPM	0	0	138.000
MET	0	0	4	4

TAP	6	0	3
TAP	6	0	4
TAP	6	96	3
TAP	6	96	4
HLD	6	192	1	96
HLD	6	192	6	96
TAP	7	0	0
TAP	7	0	1
TAP	7	96	4
TAP	7	96	5
HLD	7	192	6	96
TAP	7	192	7
TAP	7	288	3
TAP	8	0	6
TAP	8	0	7
TAP	8	96	2
TAP	8	96	3
TAP	8	192	0
HLD	8	192	1	96
TAP	8	288	4
STR	9	0	6
SUL	9	0	6	96	48	2
STR	9	192	1
SUR	9	192	1	96	48	5
BST	10	0	0
SXL	10	0	0	96	192	3
BST	10	0	7
SXR	10	0	7	96	192	4
TAP	11	0	2
TAP	11	96	1
TAP	11	96	3
TAP	11	192	4
TAP	11	240	3
TAP	11	288	4
HLD	12	0	6	288
TAP	12	0	7
TAP	12	96	5
TAP	12	192	0
TAP	12	288	4
TAP	13	0	2
TAP	13	48	2
TAP	13	96	1
TAP	13	96	3
TAP	13	192	5
TAP	13	240	5
TAP	13	288	4
TAP	13	288	6
STR	14	0	0
SI_	14	0	0	96	48	4
STR	14	96	7
SI_	14	96	7	96	48	5
STR	14	192	1
SI_	14	192	1	96	48	3
TAP	15	0	5
TAP	15	96	4
TAP	15	96	6
TAP	15	192	3
TAP	15	240	4
TAP	15	288	3
TAP	16	0	0
HLD	16	0	1	288
TAP	16	96	2
TAP	16	192	7
TAP	16	288	3
TAP	17	0	5
TAP	17	48	5
TAP	17	96	4
TAP	17	96	6
TAP	17	192	2
TAP	17	240	2
TAP	17	288	1
TAP	17	288	3
TAP	18	0	3
TAP	18	0	4
STR	18	96	0
SI_	18	96	0	96	48	4
STR	18	96	7
SI_	18	96	7	96	48	3
BRK	18	288	1
BRK	18	288	6
HLD	19	0	2	72
TAP	19	72	3
HLD	19	144	0	144
HLD	19	144	4	144
STR	20	0	3
SUR	20	0	3	96	96	0
STR	20	0	4
SCR	20	0	4	96	96	7
TAP	20	288	1
TAP	20	288	6
HLD	21	0	5	72
TAP	21	72	4
HLD	21	144	3	144
HLD	21	144	7	144
STR	22	0	4
SF_	22	0	4	96	96	0
TAP	22	288	2
TAP	22	288	6
TAP	23	0	3
HLD	23	0	4	96
TAP	23	96	7
HLD	23	192	3	96
TAP	23	192	4
STR	23	288	0
SCR	23	288	0	96	192	7
TAP	24	288	0
TAP	24	288	6
TAP	25	0	2
TAP	25	48	4
TAP	25	96	2
TAP	25	192	5
TAP	25	240	3
TAP	25	288	5
BST	26	0	0
SI_	26	0	0	96	48	5
BST	26	0	1
SI_	26	0	1	96	48	4
BST	26	192	6
SI_	26	192	6	96	48	3
BST	26	192	7
SI_	26	192	7	96	48	2
STR	27	0	0
SXR	27	0	0	96	192	5
STR	27	0	1
SXL	27	0	1	96	192	4
TAP	28	0	0
TAP	28	48	7
TAP	28	96	1
TAP	28	96	6
STR	28	192	2
SI_	28	192	2	96	48	7
STR	28	192	3
SI_	28	192	3	96	48	6
TAP	29	0	5
TAP	29	48	4
TAP	29	96	3
TAP	29	96	7
TAP	29	192	2
TAP	29	240	3
STR	29	288	0
SV_	29	288	0	96	96	2
STR	29	288	4
SV_	29	288	4	96	96	6
TAP	30	192	2
TAP	30	192	3
TAP	30	288	0
TAP	30	288	5
STR	31	0	3
SI_	31	0	3	96	48	1
TAP	31	0	4
STR	31	96	5
SI_	31	96	5	96	48	7
STR	31	192	4
SI_	31	192	4	96	48	0
TAP	32	0	7
TAP	32	48	0
TAP	32	96	1
TAP	32	96	6
STR	32	192	4
SI_	32	192	4	96	48	1
STR	32	192	5
SI_	32	192	5	96	48	0
TAP	33	0	2
TAP	33	48	3
TAP	33	96	0
TAP	33	96	4
TAP	33	192	5
TAP	33	240	4
STR	33	288	3
SCL	33	288	3	96	96	0
STR	33	288	7
SCL	33	288	7	96	96	4
TAP	34	192	4
TAP	34	192	5
TAP	34	288	2
TAP	34	288	7
TAP	35	0	3
STR	35	0	4
SI_	35	0	4	96	48	6
STR	35	96	2
SI_	35	96	2	96	48	0
STR	35	192	3
SI_	35	192	3	96	48	7
TAP	36	0	0
HLD	36	0	1	96
TAP	36	48	0
TAP	36	96	7
HLD	36	192	6	96
TAP	36	192	7
TAP	36	240	7
TAP	36	288	0
STR	37	0	1
SI_	37	0	1	96	48	6
STR	37	96	4
SI_	37	96	4	96	48	7
STR	37	192	0
SI_	37	192	0	96	48	3
STR	37	288	5
SXR	37	288	5	96	192	0
TAP	39	0	5
TAP	39	48	4
TAP	39	96	3
STR	39	96	6
SI_	39	96	6	96	48	2
STR	39	192	0
SI_	39	192	0	96	48	4
TAP	40	0	7
TAP	40	48	6
HLD	40	96	4	192
TAP	40	96	5
TAP	40	192	1
TAP	40	288	7
TAP	41	0	6
TAP	41	48	5
TAP	41	96	2
STR	41	96	4
SUL	41	96	4	96	144	1
TAP	42	0	0
TAP	42	48	7
TAP	42	96	1
HLD	42	96	6	192
TAP	42	192	4
TAP	42	288	0
TAP	43	0	2
TAP	43	48	3
STR	43	96	1
SI_	43	96	1	96	48	5
TAP	43	96	4
STR	43	192	7
SI_	43	192	7	96	48	3
TAP	44	0	0
TAP	44	48	1
TAP	44	96	2
HLD	44	96	3	192
TAP	44	192	6
TAP	44	288	0
STR	45	0	1
SI_	45	0	1	96	48	3
STR	45	96	7
SI_	45	96	7	96	48	5
STR	45	192	0
SI_	45	192	0	96	48	4
HLD	46	0	2	192
HLD	46	192	3	192
STR	47	0	4
SCL	47	0	4	96	96	1
SCR	47	0	4	96	96	7
HLD	48	0	5	192
HLD	48	192	4	192
STR	49	0	3
SF_	49	0	3	96	96	7
HLD	50	0	4	48
HLD	50	0	5	48
HLD	50	96	3	48
HLD	50	96	4	48
HLD	50	192	2	48
HLD	50	192	3	48
HLD	50	288	3	48
HLD	50	288	4	48
HLD	51	0	4	48
HLD	51	0	5	48
HLD	51	96	6	48
HLD	51	96	7	48
HLD	51	192	0	48
HLD	51	192	1	48
HLD	51	288	2	48
HLD	51	288	3	48
STR	52	0	5
SCR	52	0	5	96	48	0
STR	52	192	2
SCR	52	192	2	96	48	5
BST	53	0	6
SI_	53	0	6	96	48	3
BST	53	0	7
SI_	53	0	7	96	48	2
BST	53	192	0
SI_	53	192	0	96	48	5
BST	53	192	1
SI_	53	192	1	96	48	4
STR	54	0	6
SXR	54	0	6	96	192	3
STR	54	0	7
SXL	54	0	7	96	192	2
TAP	55	0	4
TAP	55	0	6
TAP	55	48	5
TAP	55	96	4
HLD	55	96	6	96
STR	55	192	7
SCR	55	192	7	96	48	2
TAP	56	0	3
TAP	56	48	4
TAP	56	96	5
TAP	56	96	7
TAP	56	192	4
TAP	56	240	3
STR	56	288	0
SXL	56	288	0	96	192	4
HLD	56	288	2	288
TAP	57	288	2
TAP	57	288	5
STR	58	0	3
SI_	58	0	3	96	48	1
TAP	58	0	4
STR	58	96	5
SI_	58	96	5	96	48	7
STR	58	192	4
SI_	58	192	4	96	48	0
TAP	59	0	1
TAP	59	0	3
TAP	59	48	2
HLD	59	96	1	96
TAP	59	96	3
STR	59	192	0
SCL	59	192	0	96	48	5
TAP	60	0	4
TAP	60	48	3
TAP	60	96	0
TAP	60	96	2
TAP	60	192	3
TAP	60	240	4
HLD	60	288	5	288
STR	60	288	7
SXR	60	288	7	96	192	3
TAP	61	288	2
TAP	61	288	5
STR	62	0	3
SI_	62	0	3	96	48	1
STR	62	0	4
SI_	62	0	4	96	48	6
STR	62	192	0
SI_	62	192	0	96	48	3
STR	62	192	7
SI_	62	192	7	96	48	4
TAP	63	0	2
TAP	63	0	3
TAP	63	48	1
TAP	63	48	4
TAP	63	96	0
TAP	63	96	5
TAP	63	192	4
TAP	63	192	5
TAP	63	240	3
TAP	63	240	6
TAP	63	288	2
TAP	63	288	7
STR	64	0	2
SI_	64	0	2	96	48	7
STR	64	96	5
SI_	64	96	5	96	48	0
STR	64	192	3
SI_	64	192	3	96	48	7
STR	64	288	4
SXL	64	288	4	96	192	0
SXR	64	288	4	96	192	0
TAP	65	288	1
TAP	65	288	7
STR	66	0	2
SI_	66	0	2	96	48	0
STR	66	0	3
SI_	66	0	3	96	48	7
STR	66	192	2
SI_	66	192	2	96	48	7
STR	66	192	3
SI_	66	192	3	96	48	6
TAP	67	0	4
TAP	67	0	5
TAP	67	48	3
TAP	67	48	6
TAP	67	96	2
TAP	67	96	7
TAP	67	192	2
TAP	67	192	3
TAP	67	240	1
TAP	67	240	4
TAP	67	288	0
TAP	67	288	5
STR	68	0	5
SI_	68	0	5	96	48	0
STR	68	96	2
SI_	68	96	2	96	48	7
STR	68	192	4
SI_	68	192	4	96	48	0
STR	68	288	3
SXL	68	288	3	96	192	7
SXR	68	288	3	96	192	7
TAP	69	288	0
TAP	69	288	6
HLD	70	0	3	96
STR	70	0	5
SI_	70	0	5	96	48	0
STR	70	192	2
SI_	70	192	2	96	48	7
HLD	70	192	4	96
TAP	71	0	0
HLD	71	0	6	96
TAP	71	48	0
TAP	71	96	7
HLD	71	192	1	96
TAP	71	192	7
TAP	71	240	7
TAP	71	288	0
STR	72	0	6
SI_	72	0	6	96	48	1
STR	72	96	3
SI_	72	96	3	96	48	0
STR	72	192	7
SI_	72	192	7	96	48	4
STR	72	288	2
SXL	72	288	2	96	288	5
SXR	72	288	2	96	288	7
TAP	74	0	6
TAP	74	0	7
TAP	74	48	6
TAP	74	96	0
TAP	74	96	5
TAP	74	192	0
HLD	74	192	1	96
TAP	74	288	4
TAP	75	0	0
TAP	75	0	1
TAP	75	48	1
TAP	75	96	2
TAP	75	96	7
HLD	75	192	6	96
TAP	75	192	7
TAP	75	288	3
STR	76	0	1
SUL	76	0	1	96	48	4
TAP	76	96	7
STR	76	192	6
SUR	76	192	6	96	48	3
TAP	76	288	0
BRK	77	0	0
BRK	77	0	7
TAP	77	96	2
TAP	77	96	5
HLD	77	192	3	48
HLD	77	192	4	48
STR	77	288	2
SI_	77	288	2	96	48	7
STR	77	288	5
SI_	77	288	5	96	48	0

T_REC_TAP	208
T_REC_BRK	4
T_REC_XTP	0
T_REC_HLD	51
T_REC_XHO	0
T_REC_STR	78
T_REC_BST	10
T_REC_XST	0
T_REC_TTP	0
T_REC_THO	0
T_REC_SLD	92
T_REC_ALL	443
T_NUM_TAP	286
T_NUM_BRK	14
T_NUM_HLD	51
T_NUM_SLD	92
T_NUM_ALL	443
T_JUDGE_TAP	300
T_JUDGE_HLD	118
T_JUDGE_SLD	92
T_JUDGE_ALL	510
TTM_EACHPAIRS	108
TTM_SCR_TAP	143000
TTM_SCR_BRK	36400
TTM_SCR_HLD	51000
TTM_SCR_SLD	138000
TTM_SCR_ALL	368400
TTM_SCR_S	356000
TTM_SCR_SS	367000
TTM_RAT_ACV	10038

