VERSION	0.00.00	1.03.00
FES_MODE	0
BPM_DEF	138.000	138.000	138.000	138.000
MET_DEF	4	4
RESOLUTION	384
CLK_DEF	384
COMPATIBLE_CODE	MA2

BPM	0	0	138.000
MET	0	0	4	4

STR	6	0	0
SSL	6	0	0	96	192	4
TAP	7	0	5
TAP	7	96	6
TAP	7	192	7
TAP	7	288	0
TAP	8	0	1
TAP	8	96	2
TAP	8	192	3
TAP	8	192	4
TAP	9	0	2
TAP	9	96	1
TAP	9	192	0
TAP	9	288	7
STR	10	0	7
SSR	10	0	7	96	192	3
BRK	11	0	2
TAP	11	96	3
TAP	11	192	4
TAP	11	192	5
TAP	12	0	5
TAP	12	96	4
TAP	12	192	2
TAP	12	192	3
TAP	13	0	2
TAP	13	96	2
TAP	13	96	3
TAP	13	192	5
TAP	13	288	4
TAP	13	288	5
TAP	14	0	3
TAP	14	0	4
TAP	14	96	2
TAP	14	96	5
TAP	14	192	1
TAP	14	192	6
TAP	15	0	1
TAP	15	96	0
TAP	15	192	6
TAP	15	192	7
TAP	16	0	6
TAP	16	96	7
TAP	16	192	0
TAP	16	192	1
TAP	17	0	1
TAP	17	96	0
TAP	17	96	1
TAP	17	192	6
TAP	17	288	6
TAP	17	288	7
STR	18	0	1
SI_	18	0	1	96	144	4
STR	18	0	6
SI_	18	0	6	96	144	3
HLD	19	0	1	96
TAP	19	96	0
TAP	19	192	2
TAP	19	192	7
HLD	20	0	6	96
TAP	20	96	7
TAP	20	192	0
TAP	20	192	5
HLD	21	0	2	96
TAP	21	96	3
TAP	21	192	1
TAP	21	192	4
HLD	22	0	5	96
TAP	22	96	4
TAP	22	192	3
TAP	22	192	6
HLD	23	0	2	96
TAP	23	96	3
HLD	23	192	5	96
TAP	23	288	4
HLD	24	0	1	96
TAP	24	96	2
HLD	24	192	6	96
TAP	24	288	5
HLD	25	0	0	96
HLD	25	96	1	96
HLD	25	192	2	96
TAP	25	288	3
TAP	26	0	3
TAP	26	0	4
TAP	26	96	2
TAP	26	96	5
TAP	26	192	1
TAP	26	192	6
STR	26	288	0
SXL	26	288	0	96	288	3
STR	26	288	7
SXR	26	288	7	96	288	4
BRK	28	0	2
TAP	28	96	3
TAP	28	192	2
TAP	28	192	4
TAP	29	0	5
TAP	29	96	4
TAP	29	192	3
TAP	29	192	5
TAP	29	288	2
TAP	29	288	6
TAP	30	0	1
STR	30	0	7
SCL	30	0	7	96	192	2
HLD	31	0	1	96
TAP	31	96	0
TAP	31	192	2
TAP	31	192	7
TAP	32	0	6
TAP	32	96	7
TAP	32	192	0
TAP	32	192	6
TAP	33	0	1
TAP	33	96	0
TAP	33	192	1
TAP	33	192	7
TAP	33	288	2
TAP	33	288	6
STR	34	0	3
SCL	34	0	3	96	192	6
TAP	34	0	5
HLD	35	0	5	96
TAP	35	96	4
TAP	35	192	3
TAP	35	192	6
HLD	36	0	3	96
HLD	36	96	2	96
HLD	36	192	1	96
HLD	36	288	0	96
TAP	37	0	1
TAP	37	96	2
TAP	37	96	7
TAP	37	192	3
TAP	37	192	6
STR	37	288	4
SCL	37	288	4	96	288	1
STR	37	288	5
SCR	37	288	5	96	288	0
STR	39	0	0
SI_	39	0	0	96	96	5
STR	40	0	6
SI_	40	0	6	96	96	3
STR	41	0	1
SI_	41	0	1	96	96	4
STR	42	0	5
SI_	42	0	5	96	96	0
STR	43	0	2
SI_	43	0	2	96	96	7
STR	44	0	4
SI_	44	0	4	96	96	1
STR	45	0	3
SI_	45	0	3	96	96	6
HLD	46	0	5	192
TAP	46	96	4
TAP	46	192	3
HLD	47	0	2	192
TAP	47	96	3
TAP	47	192	4
HLD	48	0	6	192
TAP	48	96	7
TAP	48	192	0
HLD	49	0	1	192
TAP	49	96	0
TAP	49	192	7
HLD	50	0	6	96
TAP	50	96	7
HLD	50	192	1	96
TAP	50	288	0
HLD	51	0	5	96
TAP	51	96	6
HLD	51	192	2	96
TAP	51	288	1
HLD	52	0	4	96
HLD	52	96	5	96
HLD	52	192	6	96
TAP	52	288	7
TAP	53	0	0
TAP	53	0	7
TAP	53	96	1
TAP	53	96	6
TAP	53	192	2
TAP	53	192	5
STR	53	288	3
SXR	53	288	3	96	288	0
STR	53	288	4
SXL	53	288	4	96	288	7
BRK	55	0	1
TAP	55	96	0
TAP	55	192	1
TAP	55	192	7
TAP	55	288	1
TAP	55	288	7
TAP	56	0	6
TAP	56	96	7
TAP	56	192	0
TAP	56	192	6
TAP	56	288	1
TAP	56	288	5
TAP	57	0	2
STR	57	0	4
SCR	57	0	4	96	192	1
HLD	58	0	2	96
TAP	58	96	3
TAP	58	192	1
TAP	58	192	4
TAP	58	288	1
TAP	58	288	4
TAP	59	0	5
TAP	59	96	4
TAP	59	192	3
TAP	59	192	5
TAP	59	288	3
TAP	59	288	5
TAP	60	0	2
TAP	60	96	3
TAP	60	192	2
TAP	60	192	4
TAP	60	288	1
TAP	60	288	5
STR	61	0	0
SCR	61	0	0	96	192	5
TAP	61	0	6
HLD	62	0	6	96
TAP	62	96	7
TAP	62	192	0
TAP	62	192	5
TAP	62	288	0
TAP	62	288	5
BRK	63	0	1
TAP	63	96	0
TAP	63	96	2
TAP	63	192	3
TAP	63	192	7
TAP	63	288	4
TAP	63	288	6
TAP	64	0	6
TAP	64	96	5
TAP	64	96	7
TAP	64	192	0
TAP	64	192	4
TAP	64	288	1
TAP	64	288	3
STR	65	0	2
SCL	65	0	2	96	192	5
HLD	66	0	4	96
TAP	66	96	3
TAP	66	192	2
TAP	66	192	5
TAP	66	288	2
TAP	66	288	5
BRK	67	0	6
TAP	67	96	5
TAP	67	96	7
TAP	67	192	0
TAP	67	192	4
TAP	67	288	1
TAP	67	288	3
TAP	68	0	1
TAP	68	96	0
TAP	68	96	2
TAP	68	192	3
TAP	68	192	7
TAP	68	288	4
TAP	68	288	6
STR	69	0	5
SCR	69	0	5	96	192	2
HLD	70	0	3	96
TAP	70	96	4
TAP	70	192	2
TAP	70	192	5
HLD	71	0	4	96
HLD	71	96	5	96
HLD	71	192	6	96
HLD	71	288	7	96
TAP	72	0	6
TAP	72	96	0
TAP	72	96	5
TAP	72	192	1
TAP	72	192	4
STR	72	288	2
SCL	72	288	2	96	288	7
STR	72	288	3
SCR	72	288	3	96	288	6
TAP	74	0	5
TAP	74	96	2
TAP	74	96	3
TAP	74	192	4
TAP	74	192	5
TAP	75	0	2
TAP	75	96	4
TAP	75	96	5
TAP	75	192	2
TAP	75	192	3
TAP	76	0	6
TAP	76	96	0
TAP	76	96	1
TAP	76	192	6
TAP	76	192	7
TAP	77	0	0
TAP	77	0	1
TAP	77	96	6
TAP	77	96	7
HLD	77	192	0	96
HLD	77	192	7	96
TAP	77	360	1
TAP	77	360	6

T_REC_TAP	214
T_REC_BRK	5
T_REC_XTP	0
T_REC_HLD	38
T_REC_XHO	0
T_REC_STR	25
T_REC_BST	0
T_REC_XST	0
T_REC_TTP	0
T_REC_THO	0
T_REC_SLD	25
T_REC_ALL	307
T_NUM_TAP	239
T_NUM_BRK	5
T_NUM_HLD	38
T_NUM_SLD	25
T_NUM_ALL	307
T_JUDGE_TAP	244
T_JUDGE_HLD	84
T_JUDGE_SLD	25
T_JUDGE_ALL	353
TTM_EACHPAIRS	80
TTM_SCR_TAP	119500
TTM_SCR_BRK	13000
TTM_SCR_HLD	38000
TTM_SCR_SLD	37500
TTM_SCR_ALL	208000
TTM_SCR_S	201300
TTM_SCR_SS	207500
TTM_RAT_ACV	10024

