VERSION	0.00.00	1.03.00
FES_MODE	0
BPM_DEF	138.000	138.000	138.000	138.000
MET_DEF	4	4
RESOLUTION	384
CLK_DEF	384
COMPATIBLE_CODE	MA2

BPM	0	0	138.000
MET	0	0	4	4

TAP	7	0	3
TAP	7	192	3
TAP	8	0	2
TAP	8	192	2
TAP	9	0	1
TAP	9	192	1
TAP	10	0	0
TAP	10	0	7
TAP	11	0	7
TAP	11	192	7
TAP	12	0	6
TAP	12	96	6
TAP	12	192	6
TAP	13	0	5
TAP	13	192	5
TAP	14	0	4
TAP	14	192	3
TAP	14	192	4
TAP	15	0	3
TAP	15	192	3
TAP	16	0	2
TAP	16	96	2
TAP	16	192	2
TAP	17	0	1
TAP	17	192	1
TAP	18	0	0
BRK	18	192	0
BRK	18	192	7
HLD	19	0	7	192
TAP	20	0	6
TAP	20	192	6
HLD	21	0	0	192
TAP	22	0	1
TAP	22	192	1
TAP	23	0	2
TAP	23	192	2
TAP	23	192	3
TAP	24	0	5
TAP	24	192	4
TAP	24	192	5
TAP	25	0	3
TAP	25	96	3
TAP	25	192	2
TAP	25	192	3
TAP	26	0	4
TAP	26	96	4
BRK	26	192	4
BRK	26	192	5
HLD	27	0	2	192
HLD	27	0	5	192
TAP	28	0	3
TAP	28	96	3
TAP	28	192	3
TAP	29	0	2
TAP	29	96	2
TAP	29	192	2
HLD	30	0	1	192
TAP	31	0	0
TAP	31	96	7
TAP	31	192	0
TAP	32	0	7
TAP	32	96	7
TAP	32	192	7
TAP	33	0	6
TAP	33	96	6
TAP	33	192	6
HLD	34	0	5	192
TAP	35	0	4
TAP	35	96	3
TAP	35	192	4
HLD	36	0	3	192
HLD	36	0	4	192
TAP	37	0	2
TAP	37	0	5
TAP	37	192	2
TAP	37	192	5
STR	38	0	1
SI_	38	0	1	96	288	4
STR	40	0	6
SI_	40	0	6	96	288	3
STR	42	0	0
SI_	42	0	0	96	288	4
STR	44	0	7
SI_	44	0	7	96	288	3
HLD	46	0	0	192
HLD	47	0	1	192
HLD	48	0	7	192
HLD	49	0	6	192
TAP	50	0	5
TAP	50	192	4
TAP	50	192	5
TAP	51	0	2
TAP	51	192	2
TAP	51	192	3
TAP	52	0	4
TAP	52	96	4
TAP	52	192	4
TAP	52	192	5
TAP	53	0	3
TAP	53	96	3
BRK	53	192	2
BRK	53	192	3
HLD	54	0	2	192
HLD	54	0	5	192
TAP	55	0	4
TAP	55	96	4
TAP	55	192	4
TAP	56	0	5
TAP	56	96	5
TAP	56	192	5
HLD	57	0	6	192
TAP	58	0	7
TAP	58	96	0
TAP	58	192	7
TAP	59	0	0
TAP	59	96	0
TAP	59	192	0
TAP	60	0	1
TAP	60	96	1
TAP	60	192	1
HLD	61	0	2	192
TAP	62	0	3
TAP	62	96	4
TAP	62	192	3
TAP	63	0	3
TAP	63	96	3
TAP	63	192	3
TAP	63	192	4
TAP	64	0	2
TAP	64	96	2
TAP	64	192	2
TAP	64	192	3
HLD	65	0	0	192
HLD	65	0	1	192
TAP	66	0	0
TAP	66	96	7
TAP	66	192	0
TAP	67	0	7
TAP	67	96	7
TAP	67	192	0
TAP	67	192	7
TAP	68	0	6
TAP	68	96	6
TAP	68	192	6
TAP	68	192	7
HLD	69	0	4	192
HLD	69	0	5	192
TAP	70	0	4
TAP	70	96	3
TAP	70	192	4
HLD	71	0	3	192
HLD	71	0	4	192
TAP	72	0	2
TAP	72	0	5
TAP	72	96	2
TAP	72	96	5
TAP	72	192	2
TAP	72	192	5
BRK	73	0	3
BRK	73	0	4
TAP	74	0	3
TAP	74	192	2
TAP	75	0	1
TAP	75	192	0
TAP	76	0	7
TAP	76	192	6
TAP	77	0	5
TAP	77	192	4
TAP	78	0	3
TAP	78	0	4

T_REC_TAP	132
T_REC_BRK	8
T_REC_XTP	0
T_REC_HLD	22
T_REC_XHO	0
T_REC_STR	4
T_REC_BST	0
T_REC_XST	0
T_REC_TTP	0
T_REC_THO	0
T_REC_SLD	4
T_REC_ALL	170
T_NUM_TAP	136
T_NUM_BRK	8
T_NUM_HLD	22
T_NUM_SLD	4
T_NUM_ALL	170
T_JUDGE_TAP	144
T_JUDGE_HLD	88
T_JUDGE_SLD	4
T_JUDGE_ALL	236
TTM_EACHPAIRS	28
TTM_SCR_TAP	68000
TTM_SCR_BRK	20800
TTM_SCR_HLD	22000
TTM_SCR_SLD	6000
TTM_SCR_ALL	116800
TTM_SCR_S	112550
TTM_SCR_SS	116000
TTM_RAT_ACV	10068

