VERSION	0.00.00	1.03.00
FES_MODE	0
BPM_DEF	170.000	170.000	170.000	170.000
MET_DEF	4	4
RESOLUTION	384
CLK_DEF	384
COMPATIBLE_CODE	MA2

BPM	0	0	170.000
MET	0	0	4	4

TAP	1	0	3
TAP	1	96	0
TAP	1	96	5
TAP	1	168	6
TAP	1	192	7
STR	1	240	0
SV_	1	240	0	96	48	1
TAP	1	240	7
TAP	1	288	0
TAP	1	288	7
TAP	2	0	4
TAP	2	96	2
TAP	2	96	7
TAP	2	168	0
STR	2	192	7
SSR	2	192	7	96	72	3
TAP	2	240	0
TAP	2	240	7
TAP	3	0	2
TAP	3	96	0
TAP	3	96	5
TAP	3	168	6
TAP	3	192	7
STR	3	240	0
SV_	3	240	0	96	48	1
TAP	3	240	7
TAP	3	288	0
TAP	3	288	7
STR	3	336	7
SV_	3	336	7	96	48	6
STR	4	48	3
SV_	4	48	3	96	48	2
STR	4	144	4
SV_	4	144	4	96	48	5
TAP	4	240	0
TAP	4	288	0
STR	5	0	2
SI_	5	0	2	96	48	6
TAP	5	0	4
TAP	5	96	2
STR	5	96	7
SI_	5	96	7	96	48	3
STR	5	192	1
SI_	5	192	1	96	48	5
TAP	5	192	7
TAP	5	288	1
STR	5	288	4
SI_	5	288	4	96	48	0
STR	6	0	3
SI_	6	0	3	96	48	7
TAP	6	0	4
TAP	6	96	3
STR	6	96	6
SI_	6	96	6	96	48	2
STR	6	192	0
SI_	6	192	0	96	48	4
TAP	6	192	6
TAP	6	288	0
STR	6	288	5
SI_	6	288	5	96	48	1
BST	7	0	3
SUR	7	0	3	96	144	4
TAP	7	0	5
STR	7	288	0
SI_	7	288	0	96	48	4
STR	8	0	0
SI_	8	0	0	96	48	2
SI_	8	0	0	96	48	6
STR	8	96	0
SF_	8	96	0	96	48	4
BRK	8	192	0
TAP	9	0	2
TAP	9	0	7
TAP	9	48	0
TAP	9	96	2
TAP	9	96	7
HLD	9	144	6	144
TAP	9	192	2
TAP	9	288	2
TAP	9	336	1
TAP	10	0	0
TAP	10	0	5
TAP	10	48	7
TAP	10	96	0
TAP	10	96	5
HLD	10	144	1	144
TAP	10	192	5
HLD	10	288	0	96
HLD	11	0	7	96
STR	11	96	5
SCR	11	96	5	96	96	2
HLD	11	144	4	144
HLD	12	0	0	96
STR	12	96	2
SCL	12	96	2	96	96	5
HLD	12	144	3	144
TAP	13	0	0
TAP	13	0	5
TAP	13	48	7
TAP	13	96	0
TAP	13	96	5
HLD	13	144	1	144
TAP	13	192	5
TAP	13	288	5
TAP	13	336	6
TAP	14	0	2
TAP	14	0	7
TAP	14	48	0
TAP	14	96	2
TAP	14	96	7
HLD	14	144	6	144
TAP	14	192	2
HLD	14	288	7	96
HLD	15	0	0	96
STR	15	96	2
SCL	15	96	2	96	96	5
HLD	15	144	3	144
HLD	16	0	7	96
STR	16	96	5
SCR	16	96	5	96	96	2
HLD	16	144	4	144
STR	17	0	0
SI_	17	0	0	96	36	5
TAP	17	48	7
TAP	17	96	0
TAP	17	144	7
STR	17	192	5
SI_	17	192	5	96	36	1
TAP	17	288	5
TAP	17	288	6
STR	18	0	1
SI_	18	0	1	96	36	4
TAP	18	48	0
TAP	18	96	1
TAP	18	144	0
STR	18	192	4
SI_	18	192	4	96	36	1
SI_	18	192	4	96	36	7
TAP	18	288	4
STR	19	0	7
SI_	19	0	7	96	36	2
TAP	19	48	0
TAP	19	96	7
TAP	19	144	0
STR	19	192	2
SI_	19	192	2	96	36	6
TAP	19	288	1
TAP	19	288	2
STR	20	0	6
SI_	20	0	6	96	36	3
TAP	20	48	7
TAP	20	96	6
TAP	20	144	7
STR	20	192	3
SI_	20	192	3	96	36	0
SI_	20	192	3	96	36	6
TAP	20	288	3
TAP	21	0	1
TAP	21	0	7
TAP	21	48	0
TAP	21	96	1
TAP	21	96	7
TAP	21	144	0
TAP	21	192	3
TAP	21	192	5
TAP	21	240	0
TAP	21	288	3
TAP	21	288	5
TAP	21	336	0
TAP	22	0	0
TAP	22	0	6
TAP	22	48	7
TAP	22	96	0
TAP	22	96	6
TAP	22	144	7
TAP	22	192	2
TAP	22	192	4
TAP	22	240	7
TAP	22	288	2
TAP	22	288	4
TAP	22	336	7
HLD	23	0	0	48
HLD	23	48	1	48
HLD	23	96	2	48
HLD	23	144	3	48
HLD	23	192	4	48
HLD	23	240	5	48
HLD	23	288	6	48
HLD	23	336	7	48
TAP	24	0	0
TAP	24	24	5
TAP	24	48	2
TAP	24	72	7
TAP	24	96	1
TAP	24	120	4
TAP	24	144	3
TAP	24	168	6
TAP	24	192	0
TAP	24	288	0
TAP	24	288	4
TAP	24	312	1
TAP	24	312	5
TAP	24	336	2
TAP	24	336	6
TAP	24	360	3
TAP	24	360	7
STR	25	0	0
SI_	25	0	0	96	24	4
TAP	25	0	4
BRK	25	96	0
TAP	25	144	3
TAP	25	168	2
TAP	25	192	1
TAP	25	216	0
TAP	25	240	6
TAP	25	240	7
TAP	25	288	4
TAP	25	288	5
TAP	25	336	2
TAP	25	336	3
TAP	26	0	1
TAP	26	24	0
TAP	26	48	2
TAP	26	72	7
TAP	26	96	3
HLD	26	144	1	48
HLD	26	144	5	48
TAP	26	240	6
TAP	26	264	7
TAP	26	288	5
TAP	26	312	0
TAP	26	336	4
TAP	26	360	1
TAP	27	0	3
TAP	27	24	4
TAP	27	48	5
TAP	27	72	6
TAP	27	96	7
TAP	27	120	0
TAP	27	144	1
TAP	27	168	2
TAP	27	192	3
TAP	27	192	4
TAP	27	240	6
TAP	27	264	7
TAP	27	312	1
TAP	27	336	0
TAP	28	0	6
TAP	28	16	5
TAP	28	32	4
TAP	28	48	1
TAP	28	64	2
TAP	28	80	3
TAP	28	96	7
STR	28	144	0
SI_	28	144	0	96	48	4
STR	28	144	3
SI_	28	144	3	96	48	7
TAP	28	240	0
TAP	28	240	3
TAP	28	336	5
TAP	28	360	4
TAP	29	0	3
STR	29	0	6
SI_	29	0	6	96	24	2
BRK	29	96	6
TAP	29	144	1
TAP	29	168	0
TAP	29	192	7
TAP	29	216	6
TAP	29	240	4
TAP	29	240	5
TAP	29	288	2
TAP	29	288	3
TAP	29	336	0
TAP	29	336	1
TAP	30	0	6
TAP	30	24	7
TAP	30	48	5
TAP	30	72	0
TAP	30	96	4
HLD	30	144	2	48
HLD	30	144	6	48
TAP	30	240	1
TAP	30	264	0
TAP	30	288	2
TAP	30	312	7
TAP	30	336	3
TAP	30	360	6
TAP	31	0	4
TAP	31	24	5
TAP	31	48	2
TAP	31	72	7
TAP	31	96	0
TAP	31	120	0
TAP	31	144	0
TAP	31	192	4
TAP	31	216	2
TAP	31	240	5
TAP	31	264	0
TAP	31	288	7
TAP	31	312	7
STR	31	336	7
SCL	31	336	7	96	48	4
SCR	31	336	7	96	48	2
BST	32	48	7
SF_	32	48	7	96	48	3
BRK	32	144	7
TAP	32	240	1
TAP	32	240	5
TAP	32	288	3
TAP	32	288	7
TAP	32	336	1
TAP	32	336	6
BRK	33	0	3
BRK	33	0	4
TAP	33	48	2
TAP	33	72	3
TAP	33	120	5
TAP	33	144	4
TAP	33	192	0
TAP	33	240	0
TAP	33	288	1
TAP	33	336	2
TAP	34	0	3
TAP	34	0	4
TAP	34	48	5
TAP	34	72	4
TAP	34	120	2
TAP	34	144	3
TAP	34	192	7
TAP	34	240	7
TAP	34	288	6
TAP	34	336	5
TAP	35	0	3
TAP	35	0	4
TAP	35	48	1
TAP	35	72	3
TAP	35	120	6
TAP	35	144	4
TAP	35	192	0
TAP	35	240	0
TAP	35	288	1
TAP	35	336	2
TAP	36	0	3
TAP	36	0	4
TAP	36	48	6
TAP	36	72	4
TAP	36	120	1
TAP	36	144	3
TAP	36	192	7
TAP	36	240	7
TAP	36	288	6
TAP	36	336	5
STR	37	0	0
SCR	37	0	0	96	48	3
TAP	37	0	4
TAP	37	48	6
TAP	37	96	0
TAP	37	192	0
STR	37	192	4
SCR	37	192	4	96	48	7
TAP	37	240	2
TAP	37	288	4
HLD	38	0	1	48
HLD	38	48	0	48
HLD	38	96	7	48
HLD	38	144	6	48
TAP	38	192	1
TAP	38	216	5
TAP	38	240	2
TAP	38	264	4
TAP	38	288	3
TAP	39	0	0
TAP	39	24	0
TAP	39	48	0
TAP	39	72	0
TAP	39	96	1
TAP	39	120	7
TAP	39	144	0
TAP	39	168	6
TAP	39	192	7
TAP	39	216	7
TAP	39	240	7
TAP	39	264	7
TAP	39	288	0
TAP	39	312	6
TAP	39	336	1
TAP	39	360	7
BST	40	0	0
SI_	40	0	0	96	48	4
BST	40	96	0
SCL	40	96	0	96	144	1
HLD	40	192	0	144
TAP	41	0	4
TAP	41	0	5
TAP	41	48	2
TAP	41	96	4
TAP	41	96	5
TAP	41	144	7
TAP	41	192	4
TAP	41	192	5
TAP	41	240	1
TAP	41	288	4
TAP	41	288	5
TAP	41	336	0
TAP	42	0	4
TAP	42	0	5
TAP	42	48	1
TAP	42	96	3
TAP	42	96	5
TAP	42	144	7
TAP	42	192	3
TAP	42	192	4
TAP	42	240	0
TAP	42	288	2
TAP	42	288	4
TAP	42	336	6
TAP	43	0	2
TAP	43	0	3
TAP	43	48	5
TAP	43	96	2
TAP	43	96	3
TAP	43	144	0
TAP	43	192	2
TAP	43	192	3
TAP	43	240	6
TAP	43	288	2
TAP	43	288	3
TAP	43	336	7
TAP	44	0	2
TAP	44	0	3
TAP	44	48	6
TAP	44	96	2
TAP	44	96	4
TAP	44	144	0
TAP	44	192	3
TAP	44	192	4
TAP	44	240	7
TAP	44	288	3
TAP	44	288	5
TAP	44	336	1
TAP	45	0	4
TAP	45	0	5
TAP	45	48	3
TAP	45	48	6
TAP	45	96	2
TAP	45	96	7
TAP	45	144	0
TAP	45	144	4
TAP	45	192	2
TAP	45	192	3
TAP	45	240	1
TAP	45	240	4
TAP	45	288	0
TAP	45	288	5
TAP	45	336	3
TAP	45	336	7
TAP	46	0	4
TAP	46	0	5
TAP	46	48	2
TAP	46	48	6
TAP	46	96	1
TAP	46	96	7
TAP	46	144	0
TAP	46	144	5
TAP	46	192	2
TAP	46	192	3
TAP	46	240	1
TAP	46	240	5
TAP	46	288	0
TAP	46	288	6
TAP	46	336	2
TAP	46	336	7
TAP	47	0	7
TAP	47	24	0
TAP	47	48	6
TAP	47	72	1
TAP	47	96	5
TAP	47	120	2
TAP	47	144	4
TAP	47	168	3
TAP	47	192	4
TAP	47	216	3
TAP	47	240	5
TAP	47	264	2
TAP	47	288	6
TAP	47	312	1
STR	47	336	7
SSR	47	336	7	96	72	3
TAP	47	360	0
TAP	48	0	7
STR	48	144	0
SSL	48	144	0	96	72	4
TAP	48	192	0
TAP	48	336	7
HLD	49	0	7	384
STR	49	96	1
SUR	49	96	1	96	120	4
HLD	50	0	4	384
STR	50	96	6
SUL	50	96	6	96	120	3
HLD	51	0	3	384
STR	51	96	5
SUR	51	96	5	96	120	0
HLD	52	0	0	384
STR	52	96	2
SUL	52	96	2	96	120	7
HLD	53	0	7	384
STR	53	96	2
SUR	53	96	2	96	120	4
HLD	54	0	4	384
STR	54	96	5
SUL	54	96	5	96	120	3
HLD	55	0	3	384
STR	55	96	2
SUL	55	96	2	96	120	0
HLD	56	0	0	384
STR	56	96	5
SUR	56	96	5	96	120	7
TAP	57	0	7
TAP	57	96	3
TAP	57	96	6
TAP	57	144	5
TAP	57	168	4
STR	57	192	5
SCR	57	192	5	96	48	0
TAP	57	216	4
TAP	57	240	5
TAP	57	288	3
TAP	58	0	2
TAP	58	96	1
TAP	58	96	4
TAP	58	144	2
TAP	58	168	3
STR	58	192	2
SCL	58	192	2	96	48	7
TAP	58	216	3
TAP	58	240	2
TAP	58	288	4
TAP	59	0	5
TAP	59	96	2
TAP	59	96	7
TAP	59	144	1
TAP	59	168	0
STR	59	192	1
SCR	59	192	1	96	48	4
TAP	59	216	0
TAP	59	240	1
TAP	59	288	7
TAP	60	0	6
TAP	60	48	6
TAP	60	48	7
TAP	60	96	0
TAP	60	96	5
TAP	60	144	1
TAP	60	144	4
TAP	60	192	2
TAP	60	192	3
TAP	60	240	2
TAP	60	264	3
TAP	60	288	2
TAP	60	336	5
TAP	60	360	4
BST	61	0	5
SI_	61	0	5	96	24	3
TAP	61	96	2
TAP	61	96	5
TAP	61	192	1
TAP	61	216	3
TAP	61	240	2
TAP	61	288	6
TAP	61	312	4
TAP	61	336	5
BST	62	0	1
SI_	62	0	1	96	24	4
TAP	62	96	1
TAP	62	96	6
TAP	62	192	7
TAP	62	216	3
TAP	62	240	6
TAP	62	288	0
TAP	62	312	4
TAP	62	336	1
BST	63	0	7
SI_	63	0	7	96	24	3
TAP	63	96	0
TAP	63	96	7
TAP	63	192	1
TAP	63	216	0
TAP	63	240	1
TAP	63	288	6
TAP	63	312	7
TAP	63	336	6
STR	64	0	0
SXL	64	0	0	96	192	3
STR	64	0	7
SXR	64	0	7	96	192	4
TAP	65	0	0
TAP	65	0	7
TAP	65	48	0
TAP	65	72	7
TAP	65	96	0
TAP	65	144	0
TAP	65	144	2
TAP	65	192	0
TAP	65	192	3
TAP	65	240	0
TAP	65	240	4
TAP	65	288	0
TAP	65	288	5
TAP	65	336	0
TAP	65	336	6
TAP	66	0	0
TAP	66	0	7
TAP	66	48	7
TAP	66	72	0
TAP	66	96	7
TAP	66	144	5
TAP	66	144	7
TAP	66	192	4
TAP	66	192	7
TAP	66	240	3
TAP	66	240	7
TAP	66	288	2
TAP	66	288	7
TAP	66	336	1
TAP	66	336	7
TAP	67	0	0
TAP	67	0	1
TAP	67	48	1
TAP	67	72	0
TAP	67	96	1
TAP	67	144	1
TAP	67	144	2
TAP	67	192	1
TAP	67	192	3
TAP	67	240	1
TAP	67	240	4
TAP	67	288	1
TAP	67	288	5
TAP	67	336	1
TAP	67	336	6
TAP	68	0	6
TAP	68	0	7
TAP	68	48	6
TAP	68	72	7
TAP	68	96	6
TAP	68	144	5
TAP	68	144	6
TAP	68	192	4
TAP	68	192	6
TAP	68	240	3
TAP	68	240	6
TAP	68	288	2
TAP	68	288	6
TAP	68	336	1
TAP	68	336	6
TAP	69	0	0
TAP	69	24	0
TAP	69	48	7
TAP	69	72	1
TAP	69	96	6
TAP	69	120	2
TAP	69	144	5
TAP	69	168	3
TAP	69	192	4
TAP	69	216	4
TAP	69	240	3
TAP	69	264	5
TAP	69	288	2
TAP	69	312	6
TAP	69	336	1
TAP	69	360	7
TAP	70	0	0
TAP	70	24	0
TAP	70	48	7
TAP	70	72	1
TAP	70	96	6
TAP	70	120	2
TAP	70	144	5
TAP	70	168	3
TAP	70	192	4
TAP	70	216	4
TAP	70	240	3
TAP	70	264	5
TAP	70	288	2
TAP	70	312	6
TAP	70	336	1
TAP	70	360	7
BRK	71	0	0
TAP	71	12	1
TAP	71	24	2
TAP	71	36	3
TAP	71	48	4
TAP	71	60	5
TAP	71	72	6
TAP	71	84	7
STR	71	96	0
SXR	71	96	0	96	192	3
TAP	71	108	1
TAP	71	120	2
TAP	71	132	3
TAP	71	144	4
TAP	71	156	5
TAP	71	168	6
TAP	71	180	7
TAP	71	192	0
BRK	72	288	3
TAP	73	0	0
TAP	73	0	5
TAP	73	48	7
TAP	73	96	0
TAP	73	96	5
STR	73	144	1
SCR	73	144	1	96	48	4
TAP	73	192	5
TAP	73	288	5
TAP	73	336	6
TAP	74	0	2
TAP	74	0	7
TAP	74	48	0
TAP	74	96	2
TAP	74	96	7
STR	74	144	6
SCL	74	144	6	96	48	3
TAP	74	192	2
TAP	74	288	2
STR	75	0	0
SCR	75	0	0	96	96	3
TAP	75	0	5
STR	75	96	3
SUR	75	96	3	96	132	5
TAP	75	144	3
TAP	75	240	7
TAP	75	288	7
TAP	76	0	2
STR	76	0	7
SCL	76	0	7	96	96	4
STR	76	96	4
SUL	76	96	4	96	132	2
TAP	76	144	4
TAP	76	240	0
TAP	76	288	0
TAP	77	0	2
TAP	77	0	7
TAP	77	48	0
TAP	77	96	2
TAP	77	96	7
STR	77	144	6
SCL	77	144	6	96	48	3
TAP	77	192	2
TAP	77	288	2
TAP	77	336	1
TAP	78	0	0
TAP	78	0	5
TAP	78	48	7
TAP	78	96	0
TAP	78	96	5
STR	78	144	1
SCR	78	144	1	96	48	4
TAP	78	192	5
TAP	78	288	5
TAP	79	0	2
STR	79	0	7
SCL	79	0	7	96	96	4
STR	79	96	4
SUL	79	96	4	96	132	2
TAP	79	144	4
TAP	79	240	0
TAP	79	288	0
STR	80	0	0
SCR	80	0	0	96	96	3
TAP	80	0	5
STR	80	96	3
SUR	80	96	3	96	132	5
TAP	80	144	3
TAP	80	240	7
TAP	80	288	7
STR	81	0	0
SI_	81	0	0	96	36	4
TAP	81	48	6
TAP	81	96	0
TAP	81	144	6
STR	81	192	4
SI_	81	192	4	96	36	1
STR	81	192	5
SI_	81	192	5	96	36	0
TAP	81	288	4
TAP	81	288	5
STR	82	0	0
SI_	82	0	0	96	36	4
TAP	82	48	2
TAP	82	96	0
TAP	82	144	2
STR	82	192	3
SI_	82	192	3	96	36	0
STR	82	192	4
SI_	82	192	4	96	36	7
TAP	82	288	3
TAP	82	288	4
STR	83	0	7
SI_	83	0	7	96	36	3
TAP	83	48	1
TAP	83	96	7
TAP	83	144	1
STR	83	192	2
SI_	83	192	2	96	36	7
STR	83	192	3
SI_	83	192	3	96	36	6
TAP	83	288	2
TAP	83	288	3
STR	84	0	7
SI_	84	0	7	96	36	3
TAP	84	48	5
TAP	84	96	7
TAP	84	144	5
STR	84	192	3
SI_	84	192	3	96	36	0
STR	84	192	4
SI_	84	192	4	96	36	7
TAP	84	288	3
TAP	84	288	4
STR	85	0	7
SI_	85	0	7	96	36	5
STR	85	48	0
SI_	85	48	0	96	36	4
TAP	85	96	7
TAP	85	144	0
STR	85	192	5
SI_	85	192	5	96	36	0
STR	85	240	4
SI_	85	240	4	96	36	1
TAP	85	288	5
TAP	85	336	4
STR	86	0	0
SI_	86	0	0	96	36	4
STR	86	48	1
SI_	86	48	1	96	36	3
TAP	86	96	0
TAP	86	144	1
STR	86	192	4
SI_	86	192	4	96	36	7
STR	86	240	3
SI_	86	240	3	96	36	0
TAP	86	288	4
TAP	86	336	3
HLD	87	0	7	48
HLD	87	48	6	48
HLD	87	96	5	48
HLD	87	144	4	48
HLD	87	192	3	48
HLD	87	240	2	48
HLD	87	288	1	48
HLD	87	336	0	48
TAP	88	0	7
TAP	88	24	2
TAP	88	48	5
TAP	88	72	0
TAP	88	96	6
TAP	88	120	3
TAP	88	144	4
TAP	88	168	1
TAP	88	192	7
TAP	88	288	3
TAP	88	288	7
TAP	88	312	2
TAP	88	312	6
TAP	88	336	1
TAP	88	336	5
TAP	88	360	0
TAP	88	360	4
BRK	89	0	3
BRK	89	0	7
TAP	89	96	1
TAP	89	112	2
TAP	89	128	3
TAP	89	144	6
TAP	89	160	5
TAP	89	176	4
TAP	89	192	0
TAP	89	240	6
TAP	89	264	7
TAP	89	312	1
TAP	89	336	0
TAP	90	0	6
TAP	90	24	7
TAP	90	48	5
TAP	90	72	0
TAP	90	96	4
HLD	90	144	2	48
HLD	90	144	6	48
TAP	90	240	1
TAP	90	264	0
TAP	90	288	2
TAP	90	312	7
TAP	90	336	3
TAP	90	360	6
TAP	91	0	4
TAP	91	24	3
TAP	91	48	2
TAP	91	72	1
TAP	91	96	0
TAP	91	120	7
TAP	91	144	6
TAP	91	168	5
TAP	91	192	3
TAP	91	192	4
TAP	91	240	1
TAP	91	264	0
TAP	91	312	6
TAP	91	336	7
BRK	92	0	0
BRK	92	0	2
TAP	92	24	0
TAP	92	24	2
BRK	92	72	5
BRK	92	72	7
TAP	92	96	5
TAP	92	96	7
BRK	92	144	2
BRK	92	144	3
TAP	92	168	2
TAP	92	168	3
BRK	92	216	4
BRK	92	216	5
TAP	92	240	4
TAP	92	240	5
TAP	92	288	2
TAP	92	288	5
TAP	92	336	1
TAP	92	336	6
BRK	93	0	0
BRK	93	0	7
TAP	93	96	1
TAP	93	112	2
TAP	93	128	3
TAP	93	144	6
TAP	93	160	5
TAP	93	176	4
TAP	93	192	0
TAP	93	208	1
TAP	93	224	2
TAP	93	240	7
TAP	93	256	6
TAP	93	272	5
TAP	93	288	0
TAP	93	312	0
TAP	93	336	1
TAP	93	336	7
TAP	94	0	5
TAP	94	24	4
TAP	94	48	6
TAP	94	72	3
TAP	94	96	7
HLD	94	144	1	48
HLD	94	144	5	48
TAP	94	240	2
TAP	94	264	3
TAP	94	288	1
TAP	94	312	4
TAP	94	336	0
TAP	94	360	5
TAP	95	0	7
TAP	95	24	6
TAP	95	48	5
TAP	95	72	4
TAP	95	96	3
TAP	95	120	2
TAP	95	144	1
TAP	95	168	0
TAP	95	192	7
TAP	95	216	6
TAP	95	240	5
TAP	95	264	4
TAP	95	288	3
TAP	95	312	2
STR	95	336	1
SI_	95	336	1	96	48	4
STR	95	336	5
SI_	95	336	5	96	48	0
BST	96	48	1
SI_	96	48	1	96	48	6
BST	96	48	5
SI_	96	48	5	96	48	2
BRK	96	144	1
BRK	96	144	5
TAP	96	240	3
TAP	96	240	7
TAP	96	288	2
TAP	96	288	6
TAP	96	336	1
TAP	96	336	5
STR	97	0	0
SI_	97	0	0	96	48	3
STR	97	0	4
SI_	97	0	4	96	48	7
BRK	97	96	0
BRK	97	96	4

T_REC_TAP	726
T_REC_BRK	24
T_REC_XTP	0
T_REC_HLD	51
T_REC_XHO	0
T_REC_STR	88
T_REC_BST	9
T_REC_XST	0
T_REC_TTP	0
T_REC_THO	0
T_REC_SLD	101
T_REC_ALL	999
T_NUM_TAP	814
T_NUM_BRK	33
T_NUM_HLD	51
T_NUM_SLD	101
T_NUM_ALL	999
T_JUDGE_TAP	847
T_JUDGE_HLD	131
T_JUDGE_SLD	101
T_JUDGE_ALL	1079
TTM_EACHPAIRS	176
TTM_SCR_TAP	407000
TTM_SCR_BRK	85800
TTM_SCR_HLD	51000
TTM_SCR_SLD	151500
TTM_SCR_ALL	695300
TTM_SCR_S	671250
TTM_SCR_SS	692000
TTM_RAT_ACV	10047

