VERSION	0.00.00	1.03.00
FES_MODE	0
BPM_DEF	170.000	170.000	170.000	170.000
MET_DEF	4	4
RESOLUTION	384
CLK_DEF	384
COMPATIBLE_CODE	MA2

BPM	0	0	170.000
MET	0	0	4	4

TAP	1	0	1
TAP	1	0	6
TAP	1	96	4
TAP	1	96	5
TAP	1	192	6
TAP	1	240	4
TAP	1	288	5
TAP	2	0	6
STR	2	0	7
SI_	2	0	7	96	48	3
STR	2	192	6
SI_	2	192	6	96	48	4
TAP	3	0	1
TAP	3	0	6
TAP	3	96	2
TAP	3	96	3
TAP	3	192	1
TAP	3	240	3
TAP	3	288	2
STR	4	0	0
SI_	4	0	0	96	48	4
TAP	4	0	1
STR	4	192	1
SI_	4	192	1	96	48	3
TAP	5	0	4
TAP	5	0	5
TAP	5	96	2
TAP	5	96	3
TAP	5	192	4
TAP	5	192	6
TAP	5	288	1
TAP	5	288	3
TAP	6	0	5
TAP	6	0	6
TAP	6	96	1
TAP	6	96	2
TAP	6	192	5
TAP	6	192	7
TAP	6	288	0
TAP	6	288	2
BRK	7	0	1
BST	7	0	6
SSR	7	0	6	96	192	2
STR	8	0	1
SI_	8	0	1	96	48	4
STR	8	96	6
SI_	8	96	6	96	48	3
STR	8	192	0
SI_	8	192	0	96	48	4
BRK	8	288	7
TAP	9	0	6
TAP	9	48	7
TAP	9	96	0
STR	9	144	1
SI_	9	144	1	96	48	4
TAP	10	0	1
TAP	10	48	0
TAP	10	96	7
STR	10	144	6
SI_	10	144	6	96	48	3
TAP	11	0	0
TAP	11	0	1
TAP	11	96	2
TAP	11	144	2
STR	11	144	3
SI_	11	144	3	96	48	6
TAP	12	0	6
TAP	12	0	7
TAP	12	96	5
STR	12	144	4
SI_	12	144	4	96	48	1
TAP	12	144	5
TAP	13	0	1
TAP	13	48	0
TAP	13	96	7
STR	13	144	6
SI_	13	144	6	96	48	3
TAP	14	0	6
TAP	14	48	7
TAP	14	96	0
STR	14	144	1
SI_	14	144	1	96	48	4
TAP	15	0	6
TAP	15	0	7
TAP	15	96	5
STR	15	144	4
SI_	15	144	4	96	48	1
TAP	15	144	5
TAP	16	0	0
TAP	16	0	1
TAP	16	96	2
TAP	16	96	7
TAP	16	192	3
TAP	16	192	6
BRK	16	288	0
BRK	16	288	7
TAP	17	0	5
TAP	17	48	4
TAP	17	96	5
STR	17	144	3
SI_	17	144	3	96	48	7
TAP	17	144	6
TAP	18	0	2
TAP	18	48	3
TAP	18	96	2
TAP	18	144	1
STR	18	144	4
SI_	18	144	4	96	48	0
HLD	19	0	1	96
TAP	19	0	7
TAP	19	96	2
STR	19	144	2
SI_	19	144	2	96	48	5
TAP	20	0	0
HLD	20	0	6	96
TAP	20	96	5
STR	20	144	5
SI_	20	144	5	96	48	2
TAP	21	0	2
TAP	21	48	3
TAP	21	96	2
TAP	21	144	1
STR	21	144	4
SI_	21	144	4	96	48	0
TAP	22	0	5
TAP	22	48	4
TAP	22	96	5
STR	22	144	3
SI_	22	144	3	96	48	7
TAP	22	144	6
TAP	23	0	5
TAP	23	48	5
TAP	23	96	2
TAP	23	144	2
TAP	23	192	5
TAP	23	240	5
STR	23	288	3
SCL	23	288	3	96	192	4
STR	23	288	4
SCR	23	288	4	96	192	3
BST	24	288	1
SI_	24	288	1	96	48	4
BST	24	288	6
SI_	24	288	6	96	48	3
TAP	25	192	1
TAP	25	192	5
TAP	25	240	0
TAP	25	288	7
TAP	25	336	2
STR	25	336	6
SI_	25	336	6	96	48	3
STR	26	48	2
SI_	26	48	2	96	48	7
STR	26	144	6
SCL	26	144	6	96	48	3
TAP	27	0	1
TAP	27	48	0
TAP	27	96	7
TAP	27	144	6
TAP	27	192	5
TAP	27	288	3
TAP	27	288	6
TAP	28	0	6
TAP	28	48	7
TAP	28	96	0
TAP	28	144	1
TAP	28	192	2
STR	28	288	1
SI_	28	288	1	96	48	4
STR	28	288	6
SI_	28	288	6	96	48	3
TAP	29	192	2
TAP	29	192	6
TAP	29	240	7
TAP	29	288	0
STR	29	336	1
SI_	29	336	1	96	48	4
TAP	29	336	5
STR	30	48	5
SI_	30	48	5	96	48	0
STR	30	144	1
SCR	30	144	1	96	48	4
TAP	31	0	6
TAP	31	48	7
TAP	31	96	0
TAP	31	144	1
TAP	31	192	2
TAP	31	288	1
TAP	31	288	4
TAP	31	336	1
TAP	31	336	4
TAP	32	48	3
TAP	32	48	6
TAP	32	144	1
TAP	32	144	4
BRK	32	240	0
BRK	32	240	7
BRK	32	288	0
BRK	32	288	7
STR	33	0	6
SI_	33	0	6	96	48	1
TAP	33	192	2
TAP	33	240	3
TAP	33	288	2
STR	34	0	1
SI_	34	0	1	96	48	6
TAP	34	192	5
TAP	34	240	4
TAP	34	288	5
STR	35	0	6
SI_	35	0	6	96	48	1
TAP	35	192	2
TAP	35	240	3
TAP	35	288	2
STR	36	0	1
SI_	36	0	1	96	48	6
TAP	36	192	5
TAP	36	240	4
TAP	36	288	5
TAP	37	0	3
STR	37	0	6
SI_	37	0	6	96	48	2
TAP	37	192	1
TAP	37	240	3
TAP	37	288	2
STR	38	0	1
SI_	38	0	1	96	48	5
TAP	38	0	4
TAP	38	192	6
TAP	38	240	4
TAP	38	288	5
TAP	39	0	3
STR	39	0	6
SI_	39	0	6	96	48	2
STR	39	192	1
SI_	39	192	1	96	48	5
TAP	39	192	4
TAP	40	0	4
TAP	40	0	6
TAP	40	96	1
TAP	40	96	3
TAP	40	192	4
TAP	40	192	6
BRK	40	288	0
BRK	40	288	7
TAP	41	0	6
STR	41	48	6
SI_	41	48	6	96	48	3
STR	41	144	2
SI_	41	144	2	96	48	7
STR	41	240	6
SI_	41	240	6	96	48	3
STR	41	336	2
SCL	41	336	2	96	48	7
STR	42	48	6
SCL	42	48	6	96	48	3
STR	42	144	2
SCL	42	144	2	96	48	7
STR	42	240	6
SCL	42	240	6	96	48	3
TAP	42	336	2
STR	43	48	1
SI_	43	48	1	96	48	4
STR	43	144	5
SI_	43	144	5	96	48	0
STR	43	240	1
SI_	43	240	1	96	48	4
STR	43	336	5
SCR	43	336	5	96	48	0
STR	44	48	1
SCR	44	48	1	96	48	4
STR	44	144	5
SCR	44	144	5	96	48	0
STR	44	240	1
SCR	44	240	1	96	48	4
TAP	44	336	5
STR	45	48	6
SI_	45	48	6	96	48	3
STR	45	144	2
SI_	45	144	2	96	48	7
STR	45	240	6
SI_	45	240	6	96	48	3
TAP	45	336	2
STR	46	48	1
SI_	46	48	1	96	48	4
STR	46	144	5
SI_	46	144	5	96	48	0
STR	46	240	1
SI_	46	240	1	96	48	4
TAP	46	336	5
STR	47	48	6
SCL	47	48	6	96	48	3
STR	47	144	2
SCL	47	144	2	96	48	7
STR	47	240	6
SCL	47	240	6	96	48	3
TAP	47	336	2
TAP	48	0	2
TAP	48	96	0
TAP	48	192	7
BRK	48	288	1
BRK	48	288	6
STR	49	0	5
SCR	49	0	5	96	192	2
TAP	50	96	2
TAP	50	96	4
STR	51	0	2
SCL	51	0	2	96	192	5
TAP	52	96	3
TAP	52	96	5
TAP	52	288	2
TAP	52	288	4
STR	53	0	5
SCR	53	0	5	96	192	2
TAP	54	96	2
TAP	54	96	4
STR	55	0	2
SCL	55	0	2	96	192	5
TAP	56	96	3
TAP	56	96	5
TAP	56	288	2
TAP	56	288	4
TAP	57	0	5
TAP	57	96	4
TAP	57	96	5
TAP	57	192	2
TAP	57	288	2
TAP	57	288	3
STR	58	0	5
SCR	58	0	5	96	192	2
HLD	58	96	3	192
TAP	59	0	2
TAP	59	96	2
TAP	59	96	3
TAP	59	192	5
TAP	59	288	4
TAP	59	288	5
STR	60	0	2
SCL	60	0	2	96	192	5
HLD	60	96	4	192
TAP	61	0	2
TAP	61	96	1
TAP	61	96	3
TAP	61	192	5
TAP	61	288	4
TAP	61	288	6
TAP	62	0	1
TAP	62	96	0
TAP	62	96	2
TAP	62	192	6
TAP	62	288	5
TAP	62	288	7
TAP	63	0	1
TAP	63	48	0
TAP	63	96	2
TAP	63	192	6
TAP	63	240	7
TAP	63	288	5
STR	64	0	1
SCR	64	0	1	96	96	4
BRK	64	192	6
TAP	65	0	5
TAP	65	48	5
TAP	65	96	4
TAP	65	144	4
TAP	65	192	5
TAP	65	240	5
TAP	65	288	3
TAP	65	288	6
TAP	66	0	2
TAP	66	48	2
TAP	66	96	3
TAP	66	144	3
TAP	66	192	2
TAP	66	240	2
TAP	66	288	1
TAP	66	288	4
TAP	67	0	6
TAP	67	48	6
TAP	67	96	7
TAP	67	144	7
TAP	67	192	6
TAP	67	240	6
TAP	67	288	0
TAP	67	288	5
TAP	68	0	1
TAP	68	48	1
TAP	68	96	0
TAP	68	144	0
TAP	68	192	1
TAP	68	240	1
TAP	68	288	2
TAP	68	288	7
TAP	69	0	0
TAP	69	48	0
TAP	69	96	1
TAP	69	144	1
TAP	69	192	2
TAP	69	240	2
TAP	69	288	3
TAP	69	336	3
TAP	70	0	4
TAP	70	48	4
TAP	70	96	5
TAP	70	144	5
TAP	70	192	6
TAP	70	240	6
TAP	70	288	7
TAP	70	336	7
STR	71	0	0
SF_	71	0	0	96	192	4
BRK	72	0	1
BST	72	0	6
SSR	72	0	6	96	192	2
TAP	73	0	2
TAP	73	48	3
TAP	73	96	2
TAP	73	144	1
STR	73	144	4
SI_	73	144	4	96	48	0
TAP	74	0	5
TAP	74	48	4
TAP	74	96	5
STR	74	144	3
SI_	74	144	3	96	48	7
TAP	74	144	6
TAP	75	0	0
TAP	75	0	5
TAP	75	48	4
TAP	75	96	3
HLD	75	144	2	144
TAP	75	144	7
TAP	75	240	1
TAP	75	288	1
TAP	76	0	2
TAP	76	0	7
TAP	76	48	3
TAP	76	96	4
TAP	76	144	0
HLD	76	144	5	144
TAP	76	240	6
TAP	76	288	6
TAP	77	0	5
TAP	77	48	4
TAP	77	96	5
STR	77	144	3
SI_	77	144	3	96	48	7
TAP	77	144	6
TAP	78	0	2
TAP	78	48	3
TAP	78	96	2
TAP	78	144	1
STR	78	144	4
SI_	78	144	4	96	48	0
TAP	79	0	2
TAP	79	0	7
TAP	79	48	3
TAP	79	96	4
TAP	79	144	0
HLD	79	144	5	144
TAP	79	240	6
TAP	79	288	6
TAP	80	0	0
TAP	80	0	5
TAP	80	48	4
TAP	80	96	3
HLD	80	144	2	144
TAP	80	144	7
TAP	80	240	1
TAP	80	288	1
TAP	81	0	2
TAP	81	48	3
TAP	81	96	2
STR	81	144	1
SI_	81	144	1	96	48	3
STR	81	144	4
SI_	81	144	4	96	48	0
TAP	82	0	5
TAP	82	48	4
TAP	82	96	5
STR	82	144	3
SI_	82	144	3	96	48	7
STR	82	144	6
SI_	82	144	6	96	48	4
TAP	83	0	1
TAP	83	0	4
TAP	83	48	0
TAP	83	96	7
TAP	83	144	3
HLD	83	144	6	144
TAP	83	240	5
TAP	83	288	5
TAP	84	0	3
TAP	84	0	6
TAP	84	48	7
TAP	84	96	0
HLD	84	144	1	144
TAP	84	144	4
TAP	84	240	2
TAP	84	288	2
TAP	85	0	5
TAP	85	48	4
TAP	85	96	5
STR	85	144	3
SI_	85	144	3	96	48	7
STR	85	144	6
SI_	85	144	6	96	48	4
TAP	86	0	2
TAP	86	48	3
TAP	86	96	2
STR	86	144	1
SI_	86	144	1	96	48	3
STR	86	144	4
SI_	86	144	4	96	48	0
TAP	87	0	5
TAP	87	48	5
TAP	87	96	2
TAP	87	144	2
TAP	87	192	4
TAP	87	240	4
STR	87	288	2
SCL	87	288	2	96	192	4
STR	87	288	5
SCR	87	288	5	96	192	3
BRK	88	288	2
BRK	88	288	5
STR	89	0	1
SI_	89	0	1	96	48	4
STR	89	0	6
SI_	89	0	6	96	48	3
HLD	89	192	1	72
HLD	89	264	2	72
TAP	89	336	3
TAP	90	0	4
TAP	90	48	5
TAP	90	96	6
HLD	90	144	7	144
TAP	90	240	0
TAP	90	288	0
STR	91	0	6
SI_	91	0	6	96	48	3
TAP	91	0	7
TAP	91	96	2
TAP	91	192	0
STR	91	192	1
SI_	91	192	1	96	48	4
TAP	91	288	5
TAP	92	0	1
TAP	92	24	0
TAP	92	72	6
TAP	92	96	7
TAP	92	144	1
TAP	92	168	0
TAP	92	216	6
TAP	92	240	7
TAP	92	288	2
TAP	92	288	5
STR	93	0	1
SI_	93	0	1	96	48	4
STR	93	0	6
SI_	93	0	6	96	48	3
HLD	93	192	6	72
HLD	93	264	5	72
TAP	93	336	4
TAP	94	0	3
TAP	94	48	2
TAP	94	96	1
HLD	94	144	0	144
TAP	94	240	7
TAP	94	288	7
TAP	95	0	2
TAP	95	0	3
TAP	95	48	2
TAP	95	96	4
TAP	95	96	5
TAP	95	144	5
TAP	95	192	0
TAP	95	192	1
TAP	95	240	1
TAP	95	288	6
TAP	95	288	7
TAP	95	336	6
TAP	96	48	1
TAP	96	48	3
TAP	96	144	4
STR	96	144	6
SSR	96	144	6	96	144	2
TAP	96	240	1
TAP	96	288	1
BRK	97	96	1
BRK	97	96	6

T_REC_TAP	369
T_REC_BRK	18
T_REC_XTP	0
T_REC_HLD	16
T_REC_XHO	0
T_REC_STR	90
T_REC_BST	4
T_REC_XST	0
T_REC_TTP	0
T_REC_THO	0
T_REC_SLD	94
T_REC_ALL	591
T_NUM_TAP	459
T_NUM_BRK	22
T_NUM_HLD	16
T_NUM_SLD	94
T_NUM_ALL	591
T_JUDGE_TAP	481
T_JUDGE_HLD	44
T_JUDGE_SLD	94
T_JUDGE_ALL	619
TTM_EACHPAIRS	107
TTM_SCR_TAP	229500
TTM_SCR_BRK	57200
TTM_SCR_HLD	16000
TTM_SCR_SLD	141000
TTM_SCR_ALL	443700
TTM_SCR_S	428300
TTM_SCR_SS	441500
TTM_RAT_ACV	10049

