VERSION	0.00.00	1.03.00
FES_MODE	0
BPM_DEF	170.000	170.000	170.000	170.000
MET_DEF	4	4
RESOLUTION	384
CLK_DEF	384
COMPATIBLE_CODE	MA2

BPM	0	0	170.000
MET	0	0	4	4

TAP	1	0	1
TAP	1	96	2
HLD	1	192	3	96
TAP	2	0	6
TAP	2	96	5
HLD	2	192	4	96
TAP	3	0	2
TAP	3	96	2
TAP	3	96	3
TAP	3	192	5
TAP	3	288	4
TAP	3	288	5
HLD	4	0	3	96
HLD	4	96	4	96
TAP	4	192	2
TAP	5	0	6
TAP	5	96	5
HLD	5	192	4	96
TAP	6	0	1
TAP	6	96	2
HLD	6	192	3	96
BRK	7	0	2
BRK	7	0	5
TAP	8	0	0
TAP	8	0	7
TAP	8	96	1
TAP	8	96	6
HLD	8	192	2	96
HLD	8	192	5	96
BRK	9	0	0
TAP	9	96	7
TAP	9	192	1
TAP	10	0	7
TAP	10	96	0
TAP	10	192	6
TAP	11	0	1
TAP	11	96	0
TAP	11	96	1
TAP	11	192	6
TAP	11	288	6
TAP	11	288	7
TAP	12	0	0
TAP	12	0	7
TAP	12	96	1
TAP	12	96	6
TAP	12	192	2
TAP	12	192	5
TAP	13	0	3
TAP	13	96	4
TAP	13	192	2
TAP	14	0	4
TAP	14	96	3
TAP	14	192	5
TAP	15	0	2
TAP	15	96	2
TAP	15	96	3
TAP	15	192	5
TAP	15	288	4
TAP	15	288	5
TAP	16	0	3
TAP	16	0	4
TAP	16	96	2
TAP	16	96	5
TAP	16	192	1
TAP	16	192	6
TAP	17	0	1
TAP	17	96	0
TAP	17	192	2
TAP	18	0	6
TAP	18	96	7
TAP	18	192	5
TAP	19	0	6
TAP	19	96	6
TAP	19	96	7
TAP	19	192	1
TAP	19	288	0
TAP	19	288	1
TAP	20	0	0
TAP	20	0	7
TAP	20	96	1
TAP	20	96	6
TAP	20	192	2
TAP	20	192	5
TAP	21	0	3
TAP	21	96	3
TAP	21	192	2
TAP	21	288	2
TAP	22	0	1
TAP	22	96	1
TAP	22	192	0
TAP	22	288	0
TAP	23	0	7
TAP	23	96	7
TAP	23	192	1
TAP	23	192	6
TAP	23	288	2
TAP	23	288	5
HLD	24	0	3	96
HLD	24	0	4	96
BRK	24	192	2
BRK	24	192	5
STR	25	0	0
SI_	25	0	0	96	96	3
TAP	25	288	6
STR	26	0	7
SI_	26	0	7	96	96	4
TAP	26	288	2
STR	27	0	1
SI_	27	0	1	96	96	4
TAP	27	288	5
STR	28	0	6
SI_	28	0	6	96	96	3
TAP	28	288	1
TAP	28	288	7
STR	29	0	7
SI_	29	0	7	96	96	4
TAP	29	288	1
STR	30	0	0
SI_	30	0	0	96	96	3
TAP	30	288	5
STR	31	0	6
SI_	31	0	6	96	96	3
TAP	31	288	2
STR	32	0	1
SI_	32	0	1	96	96	4
TAP	32	288	0
TAP	32	288	6
HLD	33	0	5	192
TAP	33	192	4
TAP	33	288	3
TAP	33	288	6
HLD	34	0	2	192
TAP	34	192	3
TAP	34	288	1
TAP	34	288	4
HLD	35	0	1	192
TAP	35	192	0
TAP	35	288	2
TAP	35	288	7
TAP	36	0	6
TAP	36	0	7
TAP	36	96	0
TAP	36	96	5
TAP	36	192	1
TAP	36	192	4
HLD	37	0	1	192
TAP	37	192	0
TAP	37	288	2
TAP	37	288	7
HLD	38	0	6	192
TAP	38	192	7
TAP	38	288	0
TAP	38	288	5
HLD	39	0	5	192
TAP	39	192	4
TAP	39	288	3
TAP	39	288	6
TAP	40	0	3
TAP	40	0	4
TAP	40	96	2
TAP	40	96	5
TAP	40	192	1
TAP	40	192	6
HLD	41	0	1	192
TAP	41	96	0
TAP	41	192	0
HLD	42	0	6	192
TAP	42	96	7
TAP	42	192	7
HLD	43	0	2	192
TAP	43	96	3
TAP	43	192	3
HLD	44	0	5	192
TAP	44	96	4
TAP	44	192	4
HLD	45	0	2	96
TAP	45	96	3
HLD	45	192	5	96
TAP	45	288	4
HLD	46	0	1	96
TAP	46	96	2
HLD	46	192	6	96
TAP	46	288	5
HLD	47	0	1	96
TAP	47	96	0
HLD	47	192	6	96
STR	47	288	7
SF_	47	288	7	96	216	3
HLD	49	0	3	192
HLD	49	192	2	192
HLD	50	0	1	192
HLD	51	0	4	192
HLD	51	192	5	192
HLD	52	0	6	192
HLD	53	0	0	192
HLD	53	192	1	192
HLD	54	0	2	192
HLD	55	0	7	192
HLD	55	192	6	192
HLD	56	0	5	192
HLD	57	0	3	192
HLD	57	192	2	192
TAP	58	0	1
TAP	58	192	0
TAP	58	192	2
HLD	59	0	4	192
HLD	59	192	5	192
TAP	60	0	6
TAP	60	192	5
TAP	60	192	7
HLD	61	0	0	192
HLD	61	192	1	192
TAP	62	0	2
TAP	62	192	1
TAP	62	192	3
HLD	63	0	7	192
TAP	63	192	6
BRK	64	0	2
BRK	64	0	5
TAP	65	0	7
TAP	65	96	6
TAP	65	192	5
TAP	65	288	4
TAP	66	0	3
TAP	66	96	2
TAP	66	96	3
TAP	66	192	1
TAP	66	192	4
TAP	67	0	0
TAP	67	96	1
TAP	67	192	2
TAP	67	288	3
TAP	68	0	4
TAP	68	96	4
TAP	68	96	5
TAP	68	192	3
TAP	68	192	6
TAP	69	0	7
TAP	69	96	6
TAP	69	192	5
TAP	69	288	4
TAP	70	0	3
TAP	70	96	2
TAP	70	192	1
TAP	70	288	0
STR	71	0	0
SCR	71	0	0	96	288	3
STR	71	0	7
SCL	71	0	7	96	288	4
HLD	73	0	2	96
TAP	73	96	3
TAP	73	192	1
HLD	74	0	5	96
TAP	74	96	4
TAP	74	192	6
HLD	75	0	2	96
TAP	75	96	3
HLD	75	192	5	96
TAP	75	288	4
TAP	76	0	3
TAP	76	0	4
TAP	76	96	2
TAP	76	96	5
TAP	76	192	1
TAP	76	192	6
HLD	77	0	6	96
TAP	77	96	7
TAP	77	192	5
HLD	78	0	1	96
TAP	78	96	0
TAP	78	192	2
HLD	79	0	6	96
TAP	79	96	7
HLD	79	192	1	96
TAP	79	288	0
TAP	80	0	0
TAP	80	0	7
TAP	80	96	1
TAP	80	96	6
TAP	80	192	2
TAP	80	192	5
HLD	81	0	2	96
TAP	81	96	3
TAP	81	192	1
TAP	81	192	4
HLD	82	0	5	96
TAP	82	96	4
TAP	82	192	3
TAP	82	192	6
HLD	83	0	5	96
TAP	83	96	4
HLD	83	192	2	96
TAP	83	288	3
TAP	84	0	3
TAP	84	0	4
TAP	84	96	2
TAP	84	96	5
TAP	84	192	1
TAP	84	192	6
TAP	85	0	7
TAP	85	96	7
TAP	85	192	6
TAP	85	288	6
TAP	86	0	5
TAP	86	96	5
TAP	86	192	4
TAP	86	288	4
TAP	87	0	3
TAP	87	96	3
TAP	87	192	2
TAP	87	192	5
TAP	87	288	1
TAP	87	288	6
HLD	88	0	0	96
HLD	88	0	7	96
TAP	88	192	1
TAP	88	192	6
STR	89	0	7
SCL	89	0	7	96	96	4
TAP	89	288	1
STR	90	0	0
SCR	90	0	0	96	96	3
TAP	90	288	5
STR	91	0	6
SCL	91	0	6	96	96	3
TAP	91	288	0
TAP	92	0	6
TAP	92	0	7
TAP	92	96	0
TAP	92	96	1
BRK	92	192	1
BRK	92	192	6
STR	93	0	0
SCR	93	0	0	96	96	3
TAP	93	288	6
STR	94	0	7
SCL	94	0	7	96	96	4
TAP	94	288	2
STR	95	0	1
SCR	95	0	1	96	96	4
TAP	95	288	7
TAP	96	0	0
TAP	96	0	1
TAP	96	96	6
TAP	96	96	7
TAP	96	192	0
TAP	96	192	7
TAP	96	240	0
TAP	96	240	7
TAP	96	288	0
TAP	96	288	7
STR	97	0	1
SI_	97	0	1	96	48	4
STR	97	0	6
SI_	97	0	6	96	48	3

T_REC_TAP	249
T_REC_BRK	9
T_REC_XTP	0
T_REC_HLD	59
T_REC_XHO	0
T_REC_STR	19
T_REC_BST	0
T_REC_XST	0
T_REC_TTP	0
T_REC_THO	0
T_REC_SLD	19
T_REC_ALL	355
T_NUM_TAP	268
T_NUM_BRK	9
T_NUM_HLD	59
T_NUM_SLD	19
T_NUM_ALL	355
T_JUDGE_TAP	277
T_JUDGE_HLD	176
T_JUDGE_SLD	19
T_JUDGE_ALL	472
TTM_EACHPAIRS	72
TTM_SCR_TAP	134000
TTM_SCR_BRK	23400
TTM_SCR_HLD	59000
TTM_SCR_SLD	28500
TTM_SCR_ALL	244900
TTM_SCR_S	236700
TTM_SCR_SS	244000
TTM_RAT_ACV	10036

