VERSION	0.00.00	1.03.00
FES_MODE	0
BPM_DEF	170.000	170.000	170.000	170.000
MET_DEF	4	4
RESOLUTION	384
CLK_DEF	384
COMPATIBLE_CODE	MA2

BPM	0	0	170.000
MET	0	0	4	4

TAP	1	0	3
TAP	1	192	3
TAP	2	0	4
TAP	2	192	4
TAP	3	0	2
TAP	3	192	2
TAP	4	0	5
TAP	4	192	5
TAP	5	0	3
TAP	5	96	3
TAP	5	192	3
TAP	5	288	3
TAP	6	0	4
TAP	6	96	4
TAP	6	192	4
TAP	6	288	4
BRK	7	0	3
BRK	7	0	4
TAP	8	0	3
TAP	8	96	3
TAP	8	192	4
BRK	8	288	4
TAP	9	0	3
TAP	9	96	3
TAP	9	192	3
TAP	10	0	2
TAP	10	96	2
TAP	10	192	2
STR	11	0	1
SI_	11	0	1	96	288	4
TAP	13	0	4
TAP	13	96	4
TAP	13	192	4
TAP	14	0	5
TAP	14	96	5
TAP	14	192	5
STR	15	0	6
SI_	15	0	6	96	288	3
TAP	17	0	2
TAP	17	96	2
TAP	17	192	2
TAP	18	0	1
TAP	18	96	1
TAP	18	192	1
STR	19	0	0
SI_	19	0	0	96	288	4
TAP	21	0	5
TAP	21	96	5
TAP	21	192	5
TAP	22	0	6
TAP	22	96	6
TAP	22	192	6
STR	23	0	7
SI_	23	0	7	96	288	3
HLD	25	0	1	192
HLD	26	0	1	192
TAP	27	0	0
TAP	27	96	0
TAP	27	192	0
TAP	28	0	7
TAP	28	96	7
TAP	28	192	7
HLD	29	0	6	192
HLD	30	0	6	192
TAP	31	0	7
TAP	31	96	7
TAP	31	192	7
TAP	32	0	0
TAP	32	96	0
BRK	32	192	0
STR	33	0	1
SI_	33	0	1	96	288	4
STR	35	0	6
SI_	35	0	6	96	288	3
STR	37	0	0
SI_	37	0	0	96	288	3
TAP	39	0	0
TAP	39	0	7
TAP	39	192	0
TAP	39	192	7
TAP	40	0	1
TAP	40	0	6
TAP	40	96	1
TAP	40	96	6
BRK	40	192	1
BRK	40	192	6
TAP	41	0	0
TAP	41	96	0
TAP	41	192	1
TAP	41	288	1
TAP	42	0	2
TAP	42	96	2
TAP	42	192	3
TAP	42	192	4
TAP	43	0	4
TAP	43	96	4
TAP	43	192	5
TAP	43	288	5
TAP	44	0	6
TAP	44	96	6
TAP	44	192	0
TAP	44	192	7
TAP	45	0	0
TAP	45	96	0
TAP	45	192	1
TAP	45	288	1
TAP	46	0	2
TAP	46	96	2
TAP	46	192	3
TAP	46	288	3
TAP	47	0	4
TAP	47	96	4
TAP	47	192	5
TAP	47	288	5
BRK	48	0	6
STR	49	0	7
SI_	49	0	7	96	288	3
STR	51	0	0
SI_	51	0	0	96	288	4
STR	53	0	5
SI_	53	0	5	96	288	0
STR	55	0	2
SI_	55	0	2	96	288	7
TAP	57	0	7
TAP	57	192	7
TAP	58	0	6
TAP	58	192	6
TAP	59	0	5
TAP	59	192	5
TAP	60	0	4
TAP	60	192	3
TAP	60	192	4
TAP	61	0	3
TAP	61	192	3
TAP	62	0	2
TAP	62	192	2
TAP	63	0	1
TAP	63	192	1
BRK	64	0	0
BRK	64	0	7
TAP	65	0	0
TAP	65	96	0
TAP	65	192	1
TAP	66	0	1
TAP	66	96	1
TAP	66	192	2
TAP	67	0	2
TAP	67	96	2
TAP	67	192	3
TAP	68	0	3
TAP	68	96	3
TAP	68	192	4
TAP	69	0	4
TAP	69	96	4
TAP	69	192	5
TAP	69	288	5
TAP	70	0	6
TAP	70	96	6
TAP	70	192	7
TAP	70	288	7
TAP	71	0	0
TAP	71	0	7
BRK	72	0	0
TAP	73	0	0
TAP	73	96	0
TAP	73	192	0
TAP	74	0	1
TAP	74	96	1
TAP	74	192	1
TAP	75	0	2
TAP	75	96	2
TAP	75	192	3
TAP	75	288	3
TAP	76	0	4
TAP	76	96	3
TAP	76	192	4
TAP	77	0	4
TAP	77	96	4
TAP	77	192	4
TAP	78	0	5
TAP	78	96	5
TAP	78	192	5
TAP	79	0	6
TAP	79	96	6
TAP	79	192	7
TAP	79	288	7
TAP	80	0	0
TAP	80	96	7
TAP	80	192	0
TAP	81	0	7
TAP	81	96	7
TAP	81	192	7
TAP	82	0	6
TAP	82	96	6
TAP	82	192	6
TAP	83	0	5
TAP	83	96	5
TAP	83	192	4
TAP	83	288	4
TAP	84	0	3
TAP	84	96	4
TAP	84	192	3
TAP	85	0	3
TAP	85	96	3
TAP	85	192	3
TAP	86	0	2
TAP	86	96	2
TAP	86	192	2
TAP	87	0	1
TAP	87	96	1
TAP	87	192	0
TAP	87	288	0
TAP	88	0	7
TAP	88	96	0
TAP	88	192	7
TAP	89	0	0
TAP	89	0	1
TAP	89	192	0
TAP	89	192	1
TAP	90	0	2
TAP	90	0	3
TAP	90	192	2
TAP	90	192	3
TAP	91	0	4
TAP	91	96	3
TAP	91	192	4
TAP	91	288	3
TAP	92	0	2
TAP	92	0	5
TAP	92	96	2
TAP	92	96	5
TAP	92	192	2
TAP	92	192	5
TAP	93	0	6
TAP	93	0	7
TAP	93	192	6
TAP	93	192	7
TAP	94	0	4
TAP	94	0	5
TAP	94	192	4
TAP	94	192	5
TAP	95	0	3
TAP	95	96	4
TAP	95	192	3
TAP	95	288	4
TAP	96	0	3
TAP	96	96	3
TAP	96	192	4
TAP	96	288	4
TAP	97	0	3
TAP	97	0	4
TAP	97	96	2
TAP	97	96	5

T_REC_TAP	217
T_REC_BRK	10
T_REC_XTP	0
T_REC_HLD	4
T_REC_XHO	0
T_REC_STR	11
T_REC_BST	0
T_REC_XST	0
T_REC_TTP	0
T_REC_THO	0
T_REC_SLD	11
T_REC_ALL	253
T_NUM_TAP	228
T_NUM_BRK	10
T_NUM_HLD	4
T_NUM_SLD	11
T_NUM_ALL	253
T_JUDGE_TAP	238
T_JUDGE_HLD	16
T_JUDGE_SLD	11
T_JUDGE_ALL	265
TTM_EACHPAIRS	24
TTM_SCR_TAP	114000
TTM_SCR_BRK	26000
TTM_SCR_HLD	4000
TTM_SCR_SLD	16500
TTM_SCR_ALL	160500
TTM_SCR_S	154750
TTM_SCR_SS	159500
TTM_RAT_ACV	10062

