VERSION	0.00.00	1.03.00
FES_MODE	0
BPM_DEF	180.000	180.000	180.000	180.000
MET_DEF	4	4
RESOLUTION	384
CLK_DEF	384
COMPATIBLE_CODE	MA2

BPM	0	0	180.000
MET	0	0	4	4

TAP	2	0	0
TAP	2	192	1
TAP	2	336	2
TAP	2	336	3
TAP	3	0	2
TAP	3	0	3
TAP	3	192	6
TAP	3	336	4
TAP	3	336	5
TAP	4	0	4
TAP	4	0	5
TAP	4	192	2
TAP	5	0	1
TAP	5	0	3
TAP	5	96	2
TAP	5	192	4
TAP	5	192	6
TAP	5	288	5
HLD	6	0	2	48
HLD	6	0	6	48
HLD	6	96	1	48
HLD	6	96	5	48
HLD	6	192	2	48
HLD	6	192	6	48
HLD	6	288	1	48
HLD	6	288	5	48
HLD	7	0	2	48
HLD	7	0	6	48
HLD	7	96	1	48
HLD	7	96	5	48
TAP	7	192	6
TAP	7	240	7
TAP	7	288	0
TAP	7	336	1
TAP	8	0	2
TAP	8	0	7
TAP	8	96	0
TAP	8	96	5
HLD	8	192	2	96
BRK	8	192	7
STR	9	0	0
SCR	9	0	0	96	192	7
BRK	9	0	2
BRK	9	96	0
TAP	9	96	7
STR	10	0	5
SI_	10	0	5	96	48	2
STR	10	0	6
SI_	10	0	6	96	48	1
TAP	10	192	2
TAP	10	192	5
TAP	10	240	3
TAP	10	264	4
TAP	10	288	3
TAP	11	0	2
TAP	11	0	7
TAP	11	48	1
TAP	11	72	0
TAP	11	96	1
TAP	11	144	6
TAP	11	168	7
STR	11	192	6
SI_	11	192	6	96	48	2
BRK	11	288	1
STR	12	0	1
SCR	12	0	1	96	48	4
STR	12	96	6
SCL	12	96	6	96	48	3
STR	12	192	1
SXL	12	192	1	96	48	3
STR	12	288	6
SXR	12	288	6	96	48	4
STR	13	0	1
SI_	13	0	1	96	48	5
TAP	13	96	6
TAP	13	192	6
TAP	13	192	7
TAP	13	288	0
TAP	13	288	1
TAP	14	0	4
HLD	14	0	6	96
TAP	14	96	7
HLD	14	192	1	96
TAP	14	192	3
TAP	14	288	0
TAP	15	0	1
TAP	15	0	3
TAP	15	96	5
STR	15	144	4
SI_	15	144	4	96	48	0
STR	15	144	6
SI_	15	144	6	96	48	4
STR	16	0	6
SCL	16	0	6	96	48	3
STR	16	96	1
SCR	16	96	1	96	48	4
STR	16	192	6
SXR	16	192	6	96	48	4
STR	16	288	1
SXL	16	288	1	96	48	3
STR	17	0	6
SI_	17	0	6	96	48	2
TAP	17	96	1
TAP	17	192	0
TAP	17	192	1
TAP	17	288	6
TAP	17	288	7
STR	18	0	3
SLL	18	0	3	96	144	6
STR	18	0	7
SLL	18	0	7	96	144	2
TAP	18	288	3
TAP	18	288	7
STR	19	0	5
SLL	19	0	5	96	48	0
STR	19	0	6
SUL	19	0	6	96	48	0
STR	19	192	1
SLL	19	192	1	96	48	4
STR	19	192	2
SUL	19	192	2	96	48	4
TAP	20	0	0
TAP	20	0	2
TAP	20	96	5
TAP	20	96	7
STR	20	192	0
SI_	20	192	0	96	48	4
STR	20	192	1
SI_	20	192	1	96	48	4
TAP	21	0	1
TAP	21	0	4
TAP	21	48	1
TAP	21	48	4
TAP	21	96	1
TAP	21	96	4
TAP	21	144	1
TAP	21	144	4
STR	21	192	1
SI_	21	192	1	96	48	4
STR	21	192	4
SI_	21	192	4	96	48	7
BRK	21	288	1
BRK	21	288	4
STR	22	0	1
SCR	22	0	1	96	96	4
TAP	22	0	4
STR	22	96	4
SUR	22	96	4	96	96	1
STR	22	192	1
SCR	22	192	1	96	96	4
TAP	22	288	4
TAP	23	0	1
HLD	23	96	2	96
STR	23	96	3
SUL	23	96	3	96	48	6
TAP	23	288	2
TAP	23	288	4
TAP	23	336	1
TAP	23	336	5
TAP	24	0	0
TAP	24	0	6
TAP	24	96	7
TAP	24	144	0
HLD	24	192	6	48
TAP	24	240	5
HLD	24	288	1	48
TAP	24	336	2
HLD	25	0	6	48
STR	25	48	5
SCL	25	48	5	96	48	1
BRK	25	192	7
TAP	25	288	2
TAP	25	336	2
HLD	26	0	2	192
TAP	26	96	0
TAP	26	192	0
STR	26	288	0
SUR	26	288	0	96	96	7
STR	26	288	2
SUR	26	288	2	96	96	7
BRK	27	144	7
BRK	27	192	7
TAP	27	288	3
TAP	27	288	5
TAP	27	336	2
TAP	27	336	6
TAP	28	0	1
TAP	28	0	7
TAP	28	96	0
TAP	28	144	7
HLD	28	192	1	48
TAP	28	240	2
HLD	28	288	6	48
TAP	28	336	5
STR	29	0	1
SI_	29	0	1	96	48	4
STR	29	48	6
SI_	29	48	6	96	48	3
TAP	29	96	1
TAP	29	144	6
HLD	29	192	1	96
BRK	29	288	0
STR	30	0	0
SUR	30	0	0	96	48	4
TAP	30	0	6
TAP	30	192	1
STR	30	192	7
SUL	30	192	7	96	48	3
TAP	31	0	1
TAP	31	0	3
TAP	31	96	2
TAP	31	96	4
TAP	31	192	3
TAP	31	192	5
HLD	32	0	2	96
HLD	32	0	5	96
HLD	32	192	2	96
HLD	32	192	5	96
HLD	33	0	2	96
HLD	33	0	5	96
TAP	33	192	1
TAP	33	192	6
TAP	34	0	0
STR	34	0	1
SUR	34	0	1	96	48	5
STR	34	192	6
SUL	34	192	6	96	48	2
TAP	34	192	7
TAP	35	0	2
TAP	35	0	4
TAP	35	96	3
TAP	35	96	5
TAP	35	192	4
TAP	35	192	6
STR	36	0	6
SUL	36	0	6	96	48	2
TAP	36	0	7
TAP	36	192	0
STR	36	192	1
SUR	36	192	1	96	48	5
STR	37	0	5
SSR	37	0	5	96	240	1
STR	37	0	6
SSL	37	0	6	96	240	2
TAP	38	0	0
TAP	38	0	4
TAP	38	48	0
TAP	38	48	4
STR	38	144	2
SI_	38	144	2	96	48	5
STR	38	144	6
SI_	38	144	6	96	48	1
TAP	38	240	2
TAP	38	240	6
TAP	39	0	3
TAP	39	0	7
TAP	39	48	3
TAP	39	48	7
STR	39	144	1
SI_	39	144	1	96	48	6
STR	39	144	5
SI_	39	144	5	96	48	2
TAP	39	240	1
TAP	39	240	5
STR	40	0	0
SUR	40	0	0	96	48	4
STR	40	0	4
SUR	40	0	4	96	48	0
TAP	40	96	0
TAP	40	96	4
TAP	40	192	3
TAP	40	192	7
TAP	40	240	2
TAP	40	240	6
TAP	40	288	1
TAP	40	288	5
TAP	41	0	0
TAP	41	48	4
TAP	41	96	2
TAP	41	144	6
TAP	41	192	3
TAP	41	240	7
TAP	41	288	1
TAP	41	336	5
TAP	42	0	1
TAP	42	0	3
TAP	42	96	4
TAP	42	96	6
TAP	42	192	0
TAP	42	192	7
TAP	42	240	2
TAP	42	240	5
TAP	42	288	2
TAP	42	288	5
BST	43	0	0
SI_	43	0	0	96	48	3
SI_	43	0	0	96	48	5
BST	43	96	0
SI_	43	96	0	96	48	4
BST	43	192	0
SF_	43	192	0	96	48	4
BRK	43	288	0
HLD	44	0	3	48
TAP	44	0	7
HLD	44	96	2	48
TAP	44	96	7
HLD	44	192	3	48
TAP	44	192	7
HLD	44	288	2	48
STR	44	288	7
SCL	44	288	7	96	96	4
STR	45	0	4
SUR	45	0	4	96	96	1
STR	45	96	1
SCL	45	96	1	96	96	6
SCR	45	96	1	96	96	4
TAP	46	0	2
TAP	46	0	4
TAP	46	48	3
TAP	46	96	2
TAP	46	96	4
TAP	46	192	3
TAP	46	192	5
TAP	46	240	4
STR	46	288	3
SI_	46	288	3	96	48	0
TAP	46	288	5
BST	47	0	4
SI_	47	0	4	96	48	7
BST	47	96	3
SI_	47	96	3	96	48	0
BST	47	192	4
SI_	47	192	4	96	48	7
BRK	47	288	3
BRK	48	0	0
HLD	48	0	4	48
BRK	48	96	0
HLD	48	96	5	48
BRK	48	192	0
HLD	48	192	4	48
BST	48	288	0
SCR	48	288	0	96	96	3
HLD	48	288	5	48
BST	49	0	3
SUL	49	0	3	96	96	6
BST	49	96	6
SCL	49	96	6	96	96	3
SCR	49	96	6	96	96	1
BRK	50	0	3
BRK	50	0	5
BRK	50	48	4
BRK	50	96	3
BRK	50	96	5
BST	50	192	1
SV_	50	192	1	96	48	4
BST	50	192	6
SI_	50	192	6	96	48	1
BST	51	0	0
SI_	51	0	0	96	48	2
BST	51	0	7
SI_	51	0	7	96	48	5
BST	51	192	0
SI_	51	192	0	96	48	2
BST	51	192	7
SI_	51	192	7	96	48	5
HLD	52	0	0	192
TAP	52	0	6
TAP	52	48	5
TAP	52	96	4
TAP	52	144	3
STR	52	192	2
SUR	52	192	2	96	48	7
TAP	52	288	1
TAP	53	0	1
HLD	53	0	7	192
TAP	53	48	2
TAP	53	96	3
TAP	53	144	4
STR	53	192	5
SUL	53	192	5	96	48	0
TAP	53	288	6
STR	54	0	3
SI_	54	0	3	96	48	6
STR	54	0	4
SI_	54	0	4	96	48	7
STR	54	192	3
SI_	54	192	3	96	48	0
STR	54	192	4
SI_	54	192	4	96	48	1
STR	55	0	1
SCL	55	0	1	96	48	6
STR	55	0	5
SUR	55	0	5	96	48	2
TAP	55	192	3
TAP	55	192	4
HLD	55	240	5	48
HLD	55	288	6	48
HLD	55	336	7	48
HLD	56	0	0	48
HLD	56	48	1	48
HLD	56	96	2	48
HLD	56	144	3	96
HLD	56	240	4	144
HLD	57	0	5	96
HLD	57	96	6	96
HLD	57	192	7	144
HLD	57	288	0	48
STR	58	0	0
SI_	58	0	0	96	48	3
STR	58	0	7
SI_	58	0	7	96	48	2
STR	58	192	0
SI_	58	192	0	96	48	5
STR	58	192	7
SI_	58	192	7	96	48	4
STR	59	0	1
SXR	59	0	1	96	192	6
STR	59	0	2
SUR	59	0	2	96	192	5
STR	60	0	2
SCR	60	0	2	96	96	6
STR	60	96	6
SCR	60	96	6	96	96	2
STR	60	192	2
SCR	60	192	2	96	96	6
TAP	60	288	6
STR	61	0	0
SSL	61	0	0	96	144	4
TAP	61	288	3
TAP	61	288	5
TAP	61	336	2
TAP	61	336	6
STR	62	0	1
SI_	62	0	1	96	48	5
STR	62	0	7
SI_	62	0	7	96	48	3
STR	62	192	0
SI_	62	192	0	96	48	4
STR	62	192	6
SI_	62	192	6	96	48	2
STR	63	0	0
SI_	63	0	0	96	48	5
TAP	63	48	4
STR	63	96	0
SI_	63	96	0	96	48	3
TAP	63	144	4
BRK	63	192	0
TAP	63	288	3
TAP	63	288	4
STR	64	0	5
SCL	64	0	5	96	96	1
STR	64	96	1
SCL	64	96	1	96	96	5
STR	64	192	5
SCL	64	192	5	96	96	1
TAP	64	288	1
STR	65	0	4
SXL	65	0	4	96	96	6
SXR	65	0	4	96	96	2
TAP	65	288	2
TAP	65	288	4
TAP	65	336	1
TAP	65	336	5
TAP	66	0	0
TAP	66	0	6
TAP	66	96	7
TAP	66	144	0
HLD	66	192	5	48
TAP	66	240	6
HLD	66	288	2	48
TAP	66	336	1
TAP	67	0	7
TAP	67	96	6
STR	67	96	7
SV_	67	96	7	96	72	2
BRK	67	192	0
BRK	67	192	7
STR	68	0	3
SCL	68	0	3	96	288	4
STR	68	0	4
SCR	68	0	4	96	288	3
STR	70	0	3
SCL	70	0	3	96	1344	4
TAP	70	0	4
TAP	70	96	4
TAP	70	192	4
TAP	70	288	4
TAP	71	0	3
TAP	71	96	3
TAP	71	192	3
TAP	71	240	3
TAP	71	288	3
TAP	72	0	2
TAP	72	96	1
TAP	72	192	2
TAP	72	288	1
TAP	73	0	0
TAP	73	96	1
TAP	73	192	1
TAP	73	240	1
TAP	73	288	1
TAP	74	0	3
STR	74	0	4
SCR	74	0	4	96	1152	3
TAP	74	96	3
TAP	74	192	3
TAP	74	288	3
TAP	75	0	4
TAP	75	96	4
TAP	75	192	4
TAP	75	240	4
TAP	75	288	4
TAP	76	0	5
TAP	76	96	6
TAP	76	192	7
TAP	76	288	6
TAP	77	0	6
TAP	77	48	6
TAP	77	96	6
BRK	77	192	3
BRK	77	192	4
BRK	77	240	3
BRK	77	240	4
TAP	79	0	2
TAP	79	0	7
TAP	79	144	1
STR	79	192	0
SCL	79	192	0	96	48	5
SCR	79	192	0	96	48	3
TAP	80	0	0
TAP	80	0	5
TAP	80	144	6
STR	80	192	7
SCL	80	192	7	96	48	4
SCR	80	192	7	96	48	2
HLD	81	0	3	96
HLD	81	96	2	96
HLD	81	192	1	96
HLD	81	288	0	96
TAP	82	0	7
TAP	82	48	6
TAP	82	96	5
TAP	82	144	4
STR	82	192	3
SI_	82	192	3	96	48	7
TAP	82	288	2
TAP	83	0	3
TAP	83	0	6
TAP	83	144	5
STR	83	192	4
SCL	83	192	4	96	48	1
SCR	83	192	4	96	48	7
TAP	84	0	1
TAP	84	0	4
TAP	84	144	2
STR	84	192	3
SCL	84	192	3	96	48	0
SCR	84	192	3	96	48	6
HLD	85	0	6	96
HLD	85	96	5	96
HLD	85	192	4	96
STR	85	288	3
SI_	85	288	3	96	48	1
STR	86	0	4
SI_	86	0	4	96	48	6
STR	86	96	3
SF_	86	96	3	96	96	7
HLD	87	0	1	48
HLD	87	0	5	48
HLD	87	96	2	48
HLD	87	96	6	48
HLD	87	192	1	48
HLD	87	192	5	48
HLD	87	288	2	48
HLD	87	288	6	48
STR	88	0	1
SI_	88	0	1	96	48	7
STR	88	0	2
SI_	88	0	2	96	48	4
STR	88	192	1
SI_	88	192	1	96	48	6
STR	88	192	2
SI_	88	192	2	96	48	5
TAP	89	0	0
TAP	89	0	3
STR	89	96	1
SI_	89	96	1	96	48	5
STR	89	96	2
SI_	89	96	2	96	48	6
TAP	89	192	1
TAP	89	192	2
BRK	89	288	1
TAP	89	304	2
TAP	89	320	3
TAP	89	336	4
TAP	89	352	5
TAP	89	368	6
STR	90	0	7
SCR	90	0	7	96	288	6

T_REC_TAP	263
T_REC_BRK	28
T_REC_XTP	0
T_REC_HLD	68
T_REC_XHO	0
T_REC_STR	101
T_REC_BST	15
T_REC_XST	0
T_REC_TTP	0
T_REC_THO	0
T_REC_SLD	124
T_REC_ALL	599
T_NUM_TAP	364
T_NUM_BRK	43
T_NUM_HLD	68
T_NUM_SLD	124
T_NUM_ALL	599
T_JUDGE_TAP	407
T_JUDGE_HLD	102
T_JUDGE_SLD	124
T_JUDGE_ALL	633
TTM_EACHPAIRS	139
TTM_SCR_TAP	182000
TTM_SCR_BRK	111800
TTM_SCR_HLD	68000
TTM_SCR_SLD	186000
TTM_SCR_ALL	547800
TTM_SCR_S	527200
TTM_SCR_SS	543500
TTM_RAT_ACV	10079

