VERSION	0.00.00	1.03.00
FES_MODE	0
BPM_DEF	180.000	180.000	180.000	180.000
MET_DEF	4	4
RESOLUTION	384
CLK_DEF	384
COMPATIBLE_CODE	MA2

BPM	0	0	180.000
MET	0	0	4	4

TAP	2	0	2
TAP	2	96	3
TAP	2	192	4
TAP	2	288	6
TAP	2	288	7
TAP	3	0	5
TAP	3	96	4
TAP	3	192	3
TAP	3	288	0
TAP	3	288	1
TAP	4	0	3
TAP	4	96	0
TAP	4	96	6
TAP	4	192	4
TAP	4	288	1
TAP	4	288	7
TAP	5	0	2
TAP	5	0	3
TAP	5	96	4
TAP	5	96	5
TAP	5	192	1
TAP	5	192	6
HLD	6	0	1	96
HLD	6	0	5	96
HLD	6	192	2	96
HLD	6	192	6	96
TAP	7	0	5
TAP	7	96	4
TAP	7	192	5
TAP	7	288	1
TAP	7	288	7
TAP	8	0	2
TAP	8	96	3
TAP	8	192	2
TAP	8	288	0
TAP	8	288	6
TAP	9	0	4
TAP	9	0	5
TAP	9	96	2
TAP	9	96	3
TAP	9	192	1
TAP	9	192	6
HLD	10	0	4	96
HLD	10	0	7	96
HLD	10	192	0	96
HLD	10	192	3	96
BRK	11	0	0
BRK	11	0	7
HLD	12	0	2	96
TAP	12	0	6
TAP	12	96	7
TAP	12	192	1
HLD	12	192	5	96
TAP	12	288	0
HLD	13	0	6	96
TAP	13	0	7
HLD	13	96	5	96
HLD	13	192	4	96
TAP	13	288	0
HLD	14	0	2	96
TAP	14	0	3
TAP	14	96	0
TAP	14	192	4
HLD	14	192	5	96
TAP	14	288	7
TAP	15	0	0
HLD	15	0	1	96
HLD	15	96	2	96
HLD	15	192	3	96
TAP	15	288	7
HLD	16	0	1	96
TAP	16	0	4
TAP	16	96	0
TAP	16	192	3
HLD	16	192	6	96
TAP	16	288	7
TAP	17	0	2
TAP	17	0	3
TAP	17	96	4
TAP	17	96	5
TAP	17	192	1
TAP	17	192	3
TAP	17	288	4
TAP	17	288	6
STR	18	0	2
SLR	18	0	2	96	192	0
STR	19	0	7
SI_	19	0	7	96	96	4
BRK	19	192	3
TAP	20	0	0
TAP	20	0	2
TAP	20	192	5
TAP	20	192	7
TAP	21	0	3
TAP	21	48	4
TAP	21	96	3
TAP	21	144	4
TAP	21	192	3
TAP	21	288	2
TAP	21	288	5
TAP	22	0	0
TAP	22	0	1
TAP	22	96	2
TAP	22	96	7
TAP	22	192	6
TAP	22	192	7
TAP	22	288	0
TAP	22	288	5
STR	23	0	2
SI_	23	0	2	96	96	6
STR	23	0	3
SI_	23	0	3	96	96	5
TAP	24	0	6
TAP	24	0	7
TAP	24	96	0
TAP	24	96	5
TAP	24	192	0
TAP	24	192	1
TAP	24	288	2
TAP	24	288	7
STR	25	0	4
SI_	25	0	4	96	96	2
STR	25	0	5
SI_	25	0	5	96	96	1
TAP	26	0	2
TAP	26	96	2
HLD	26	192	2	288
HLD	27	0	0	96
BRK	27	192	7
STR	28	0	1
SV_	28	0	1	96	96	3
STR	28	0	5
SV_	28	0	5	96	96	7
TAP	29	0	5
TAP	29	0	7
TAP	29	96	1
TAP	29	96	6
TAP	29	192	0
TAP	29	192	2
HLD	30	0	2	96
HLD	30	0	3	96
TAP	30	192	0
HLD	30	192	6	144
HLD	30	336	5	96
TAP	31	48	4
TAP	31	144	0
TAP	31	144	6
TAP	31	192	0
TAP	31	192	6
HLD	32	0	4	96
HLD	32	0	5	96
HLD	32	192	1	144
TAP	32	192	7
HLD	32	336	2	96
TAP	33	48	3
TAP	33	144	1
TAP	33	144	7
TAP	33	192	1
TAP	33	192	7
HLD	34	0	0	96
HLD	34	0	1	96
TAP	34	192	3
HLD	34	192	5	144
HLD	34	336	6	96
TAP	35	48	7
TAP	35	144	3
TAP	35	144	5
TAP	35	192	3
TAP	35	192	5
HLD	36	0	6	96
HLD	36	0	7	96
HLD	36	192	2	144
TAP	36	192	4
HLD	36	336	1	96
TAP	37	48	0
TAP	37	144	2
TAP	37	144	4
TAP	37	192	2
TAP	37	192	4
STR	37	288	0
SSL	37	288	0	96	192	4
TAP	37	288	7
HLD	39	0	5	96
TAP	39	96	4
HLD	39	192	2	96
TAP	39	288	3
TAP	40	0	6
TAP	40	0	7
TAP	40	96	0
TAP	40	96	1
TAP	40	192	5
TAP	40	240	4
TAP	40	288	5
TAP	41	0	2
TAP	41	48	3
TAP	41	96	2
TAP	41	192	0
TAP	41	240	7
TAP	41	288	0
STR	41	336	7
SSR	41	336	7	96	240	3
TAP	43	0	1
TAP	43	96	1
TAP	43	192	1
TAP	44	0	2
TAP	44	0	3
TAP	44	96	1
TAP	44	192	2
TAP	44	192	3
TAP	44	288	5
TAP	45	0	2
TAP	45	0	3
TAP	45	96	1
TAP	45	192	4
TAP	45	240	4
TAP	45	288	4
TAP	46	0	4
TAP	46	0	5
TAP	46	96	6
TAP	46	192	4
TAP	46	192	5
TAP	46	288	2
STR	47	0	4
SI_	47	0	4	96	48	7
STR	47	192	3
SI_	47	192	3	96	48	0
STR	48	0	4
SI_	48	0	4	96	48	0
TAP	48	192	1
BRK	48	288	1
BRK	49	0	0
BRK	49	96	2
BRK	49	192	1
BRK	49	288	0
BRK	49	288	2
HLD	50	0	4	96
HLD	50	0	6	96
HLD	50	192	1	96
HLD	50	192	3	96
TAP	51	0	0
TAP	51	0	7
TAP	51	96	0
TAP	51	96	7
TAP	51	192	0
TAP	51	192	7
TAP	52	0	1
TAP	52	0	4
TAP	52	96	2
TAP	52	144	3
TAP	52	192	2
TAP	52	288	0
TAP	52	288	7
TAP	53	0	3
TAP	53	0	6
TAP	53	96	5
TAP	53	144	4
TAP	53	192	5
TAP	53	288	0
TAP	53	288	7
TAP	54	0	3
TAP	54	0	4
TAP	54	96	1
TAP	54	144	0
TAP	54	192	1
TAP	54	288	6
TAP	54	336	7
TAP	55	0	6
TAP	55	96	3
TAP	55	144	4
TAP	55	192	3
BRK	55	288	1
BRK	55	288	6
STR	56	0	6
SUR	56	0	6	96	144	4
STR	56	0	7
SCR	56	0	7	96	144	1
STR	57	0	2
SXL	57	0	2	96	288	5
TAP	58	192	0
TAP	58	192	7
TAP	58	288	1
TAP	58	288	6
TAP	59	0	2
TAP	59	0	5
TAP	59	96	0
TAP	59	144	7
TAP	59	192	0
BRK	59	288	1
BRK	59	288	6
TAP	60	0	0
TAP	60	0	7
TAP	60	96	2
TAP	60	144	3
TAP	60	192	2
TAP	60	288	5
TAP	60	336	4
TAP	61	0	5
STR	61	96	2
SCL	61	96	2	96	96	7
STR	61	96	3
SUL	61	96	3	96	96	6
TAP	62	0	0
TAP	62	0	7
TAP	62	96	5
TAP	62	144	4
TAP	62	192	5
TAP	62	288	2
TAP	62	336	3
TAP	63	0	2
STR	63	96	4
SUR	63	96	4	96	96	1
STR	63	96	5
SCR	63	96	5	96	96	0
STR	64	0	2
SV_	64	0	2	96	96	0
STR	64	0	6
SV_	64	0	6	96	96	4
STR	65	0	1
SV_	65	0	1	96	96	3
STR	65	0	5
SV_	65	0	5	96	96	7
TAP	66	0	3
TAP	66	0	4
TAP	66	96	1
TAP	66	144	0
TAP	66	192	1
TAP	66	288	6
TAP	66	336	7
STR	67	0	6
SCL	67	0	6	96	192	1
STR	68	0	0
SI_	68	0	0	96	96	3
STR	68	0	7
SI_	68	0	7	96	96	4
TAP	70	0	2
TAP	70	96	3
HLD	70	192	2	96
TAP	70	288	3
TAP	71	0	5
TAP	71	96	4
HLD	71	192	5	96
TAP	71	288	4
TAP	72	0	1
TAP	72	96	2
TAP	72	192	3
TAP	72	288	4
TAP	72	288	5
TAP	73	0	6
TAP	73	96	5
TAP	73	192	4
TAP	73	288	2
TAP	73	288	3
HLD	74	0	3	672
HLD	74	0	4	672
STR	76	0	6
SSL	76	0	6	96	192	2
STR	77	0	0
SF_	77	0	0	96	192	4
STR	79	0	5
SV_	79	0	5	96	96	2
TAP	79	192	0
BRK	79	288	0
STR	80	0	2
SV_	80	0	2	96	96	5
TAP	80	192	7
TAP	80	288	7
TAP	81	0	2
TAP	81	96	3
TAP	81	192	4
TAP	81	288	5
STR	82	0	4
SV_	82	0	4	96	96	1
STR	82	0	6
SCR	82	0	6	96	96	1
BRK	82	288	4
HLD	83	0	2	96
HLD	83	0	3	96
TAP	83	192	2
TAP	83	192	3
TAP	83	288	2
TAP	83	288	3
HLD	84	0	3	96
HLD	84	0	4	96
TAP	84	192	3
TAP	84	192	4
TAP	84	288	3
TAP	84	288	4
HLD	85	0	4	96
HLD	85	0	5	96
TAP	85	192	4
TAP	85	192	5
TAP	85	288	4
TAP	85	288	5
STR	86	0	3
SV_	86	0	3	96	96	1
STR	86	0	4
SV_	86	0	4	96	96	6
BRK	86	288	0
BRK	86	288	7
STR	87	0	3
SCL	87	0	3	96	192	4
TAP	87	0	4
TAP	88	0	1
TAP	88	0	3
TAP	88	192	4
TAP	88	192	6
TAP	89	0	1
TAP	89	0	2
TAP	89	96	1
TAP	89	96	2
STR	89	192	1
SI_	89	192	1	96	48	6
STR	89	192	2
SI_	89	192	2	96	48	5
BRK	90	0	0
BRK	90	0	7

T_REC_TAP	266
T_REC_BRK	20
T_REC_XTP	0
T_REC_HLD	54
T_REC_XHO	0
T_REC_STR	38
T_REC_BST	0
T_REC_XST	0
T_REC_TTP	0
T_REC_THO	0
T_REC_SLD	38
T_REC_ALL	416
T_NUM_TAP	304
T_NUM_BRK	20
T_NUM_HLD	54
T_NUM_SLD	38
T_NUM_ALL	416
T_JUDGE_TAP	324
T_JUDGE_HLD	140
T_JUDGE_SLD	38
T_JUDGE_ALL	502
TTM_EACHPAIRS	117
TTM_SCR_TAP	152000
TTM_SCR_BRK	52000
TTM_SCR_HLD	54000
TTM_SCR_SLD	57000
TTM_SCR_ALL	315000
TTM_SCR_S	303650
TTM_SCR_SS	313000
TTM_RAT_ACV	10063

