VERSION	0.00.00	1.03.00
FES_MODE	0
BPM_DEF	180.000	180.000	180.000	180.000
MET_DEF	4	4
RESOLUTION	384
CLK_DEF	384
COMPATIBLE_CODE	MA2

BPM	0	0	180.000
MET	0	0	4	4

STR	2	0	6
SSL	2	0	6	96	480	2
STR	4	0	1
SSR	4	0	1	96	480	5
STR	6	0	7
SXR	6	0	7	96	480	3
STR	8	0	0
SXL	8	0	0	96	480	4
BST	10	0	0
SCR	10	0	0	96	288	3
BST	10	0	7
SCL	10	0	7	96	288	4
TAP	12	0	2
TAP	12	96	2
TAP	12	192	3
TAP	13	0	5
TAP	13	96	5
TAP	13	192	4
TAP	14	0	2
TAP	14	96	3
TAP	14	192	5
TAP	14	288	4
HLD	15	0	3	96
HLD	15	0	4	96
TAP	15	192	2
TAP	15	192	5
TAP	16	0	1
TAP	16	96	1
TAP	16	192	0
TAP	17	0	6
TAP	17	96	6
TAP	17	192	7
TAP	18	0	1
TAP	18	96	0
TAP	18	192	7
TAP	18	288	6
TAP	19	0	0
TAP	19	0	7
TAP	19	96	0
TAP	19	96	7
TAP	19	192	1
TAP	19	192	6
BST	20	0	7
SF_	20	0	7	96	288	3
STR	22	0	6
SI_	22	0	6	96	96	3
STR	22	192	1
SI_	22	192	1	96	96	4
STR	23	0	7
SI_	23	0	7	96	96	3
STR	24	0	1
SI_	24	0	1	96	96	4
STR	24	192	6
SI_	24	192	6	96	96	3
STR	25	0	0
SI_	25	0	0	96	96	4
STR	26	0	6
SXR	26	0	6	96	288	3
STR	27	0	2
SXR	27	0	2	96	288	7
TAP	28	192	3
TAP	28	192	4
TAP	29	0	4
TAP	29	96	3
BRK	29	192	2
BRK	29	192	5
HLD	30	0	1	192
TAP	30	192	0
HLD	31	0	6	192
TAP	31	192	7
HLD	32	0	1	192
HLD	32	192	2	192
HLD	33	0	3	192
TAP	33	192	4
HLD	34	0	5	192
TAP	34	192	4
HLD	35	0	2	192
TAP	35	192	3
HLD	36	0	4	192
HLD	36	192	5	192
HLD	37	0	6	192
HLD	37	192	7	192
STR	38	0	0
SCR	38	0	0	96	480	6
TAP	40	0	7
TAP	40	192	0
TAP	40	192	6
TAP	41	0	1
TAP	41	0	5
BST	41	192	2
SXR	41	192	2	96	384	1
BST	41	192	4
SXL	41	192	4	96	384	5
TAP	43	0	7
TAP	43	192	6
TAP	44	0	5
TAP	44	96	5
TAP	44	192	4
TAP	44	192	5
TAP	45	0	2
TAP	45	96	2
TAP	45	192	2
TAP	45	192	3
TAP	46	0	5
TAP	46	96	4
TAP	46	96	5
TAP	46	192	2
TAP	46	288	2
TAP	46	288	3
STR	47	0	3
SI_	47	0	3	96	144	0
STR	47	0	4
SI_	47	0	4	96	144	7
TAP	48	0	1
TAP	48	96	1
TAP	48	192	0
TAP	48	192	1
TAP	49	0	6
TAP	49	96	6
TAP	49	192	6
TAP	49	192	7
TAP	50	0	1
TAP	50	96	0
TAP	50	96	1
TAP	50	192	6
TAP	50	288	6
STR	50	288	7
SSR	50	288	7	96	288	3
TAP	52	0	4
TAP	52	96	3
TAP	52	96	5
TAP	52	192	2
TAP	52	192	6
TAP	53	0	3
TAP	53	96	2
TAP	53	96	4
TAP	53	192	1
TAP	53	192	5
TAP	54	0	4
TAP	54	96	3
TAP	54	96	5
TAP	54	192	3
TAP	54	288	2
TAP	54	288	4
TAP	55	0	1
TAP	55	0	5
TAP	55	96	0
TAP	55	96	6
TAP	55	192	7
STR	56	0	1
SXR	56	0	1	96	480	3
TAP	58	0	3
TAP	58	96	2
TAP	58	96	4
TAP	58	192	4
TAP	58	288	3
TAP	58	288	5
TAP	59	0	2
TAP	59	0	6
TAP	59	96	1
TAP	59	96	7
TAP	59	192	0
TAP	60	0	0
TAP	60	96	1
TAP	60	96	7
TAP	60	192	2
TAP	60	192	6
TAP	61	0	7
TAP	61	96	0
TAP	61	96	6
TAP	61	192	1
TAP	61	192	5
TAP	62	0	0
TAP	62	96	1
TAP	62	96	7
TAP	62	192	7
TAP	62	288	0
TAP	62	288	6
TAP	63	0	1
TAP	63	0	5
TAP	63	96	2
TAP	63	96	4
TAP	63	192	3
TAP	64	0	7
TAP	64	96	0
TAP	64	96	6
TAP	64	192	1
TAP	64	192	5
TAP	65	0	0
TAP	65	96	1
TAP	65	96	7
TAP	65	192	2
TAP	65	192	6
TAP	66	0	7
TAP	66	96	0
TAP	66	96	6
TAP	66	192	0
TAP	66	288	1
TAP	66	288	7
TAP	67	0	2
TAP	67	0	6
TAP	67	96	3
TAP	67	96	5
TAP	67	192	4
STR	68	0	3
SCL	68	0	3	96	288	0
STR	68	0	4
SCR	68	0	4	96	288	7
TAP	70	0	1
TAP	70	96	0
TAP	70	192	6
TAP	70	192	7
TAP	71	0	6
TAP	71	96	7
TAP	71	192	0
TAP	71	192	1
TAP	72	0	1
TAP	72	96	0
TAP	72	96	1
TAP	72	192	6
TAP	72	288	6
TAP	72	288	7
TAP	73	0	0
TAP	73	0	7
TAP	73	96	1
TAP	73	96	6
TAP	73	192	2
TAP	73	192	5
TAP	74	0	5
TAP	74	96	4
TAP	74	192	2
TAP	74	192	3
TAP	75	0	2
TAP	75	96	3
TAP	75	192	4
TAP	75	192	5
TAP	76	0	5
TAP	76	96	4
TAP	76	96	5
TAP	76	192	2
TAP	76	288	2
TAP	76	288	3
TAP	77	0	2
TAP	77	0	5
TAP	77	96	1
TAP	77	96	6
STR	77	192	0
SCR	77	192	0	96	288	3
STR	77	192	7
SCL	77	192	7	96	288	4
HLD	79	0	5	192
TAP	79	192	4
HLD	80	0	2	192
TAP	80	192	3
HLD	81	0	5	192
HLD	81	192	6	192
HLD	82	0	7	192
TAP	82	192	0
HLD	83	0	1	192
TAP	83	192	0
HLD	84	0	6	192
TAP	84	192	7
HLD	85	0	1	192
HLD	85	192	2	192
TAP	86	0	3
STR	86	192	3
SXR	86	192	3	96	384	0
STR	86	192	4
SXL	86	192	4	96	384	7
TAP	88	0	6
TAP	88	0	7
TAP	88	192	0
TAP	88	192	1
TAP	89	0	1
TAP	89	0	6
TAP	89	96	2
TAP	89	96	5
TAP	89	192	3
TAP	89	192	4
BRK	90	0	2
BRK	90	0	5

T_REC_TAP	199
T_REC_BRK	4
T_REC_XTP	0
T_REC_HLD	22
T_REC_XHO	0
T_REC_STR	23
T_REC_BST	5
T_REC_XST	0
T_REC_TTP	0
T_REC_THO	0
T_REC_SLD	28
T_REC_ALL	281
T_NUM_TAP	222
T_NUM_BRK	9
T_NUM_HLD	22
T_NUM_SLD	28
T_NUM_ALL	281
T_JUDGE_TAP	231
T_JUDGE_HLD	84
T_JUDGE_SLD	28
T_JUDGE_ALL	343
TTM_EACHPAIRS	70
TTM_SCR_TAP	111000
TTM_SCR_BRK	23400
TTM_SCR_HLD	22000
TTM_SCR_SLD	42000
TTM_SCR_ALL	198400
TTM_SCR_S	191600
TTM_SCR_SS	197500
TTM_RAT_ACV	10045

