VERSION	0.00.00	1.03.00
FES_MODE	0
BPM_DEF	180.000	180.000	180.000	180.000
MET_DEF	4	4
RESOLUTION	384
CLK_DEF	384
COMPATIBLE_CODE	MA2

BPM	0	0	180.000
MET	0	0	4	4

TAP	2	0	0
TAP	2	192	0
TAP	3	0	0
TAP	3	192	0
TAP	4	0	1
TAP	4	192	1
TAP	5	0	1
TAP	5	192	1
TAP	6	0	2
TAP	6	192	2
TAP	7	0	2
TAP	7	192	2
TAP	8	0	3
TAP	8	192	3
TAP	9	0	3
TAP	9	192	3
BRK	10	0	3
BRK	10	0	4
TAP	11	0	3
TAP	11	96	4
TAP	11	192	3
TAP	12	0	4
TAP	12	192	4
TAP	13	0	4
TAP	13	192	4
TAP	14	0	5
TAP	14	192	5
TAP	15	0	5
TAP	15	192	5
TAP	16	0	6
TAP	16	192	6
TAP	17	0	6
TAP	17	192	6
TAP	18	0	7
TAP	18	192	7
STR	19	0	7
SI_	19	0	7	96	288	3
TAP	22	0	3
TAP	22	192	3
TAP	23	0	2
TAP	23	96	2
TAP	23	192	2
TAP	24	0	1
TAP	24	192	1
TAP	25	0	0
TAP	25	96	7
TAP	25	192	0
TAP	26	0	7
TAP	26	192	7
TAP	27	0	6
TAP	27	96	6
TAP	27	192	6
TAP	28	0	5
TAP	28	192	5
TAP	29	0	4
TAP	29	96	3
BRK	29	192	4
HLD	30	0	4	192
HLD	31	0	5	192
TAP	32	0	6
TAP	32	192	6
TAP	33	0	7
TAP	33	96	0
TAP	33	192	7
HLD	34	0	0	192
HLD	35	0	1	192
TAP	36	0	2
TAP	36	192	2
TAP	37	0	3
TAP	37	96	3
TAP	37	192	4
TAP	37	288	4
STR	38	0	3
SI_	38	0	3	96	288	0
STR	40	0	4
SI_	40	0	4	96	288	7
HLD	42	0	0	384
HLD	42	0	7	384
TAP	44	0	7
TAP	44	192	7
TAP	45	0	6
TAP	45	192	6
TAP	45	192	7
TAP	46	0	5
TAP	46	192	5
TAP	47	0	4
TAP	47	192	4
TAP	47	192	5
TAP	48	0	3
TAP	48	192	3
TAP	49	0	2
TAP	49	192	2
TAP	49	192	3
TAP	50	0	1
TAP	50	192	1
TAP	51	0	0
TAP	51	192	0
TAP	51	192	1
TAP	52	0	0
TAP	52	96	0
TAP	52	192	0
TAP	53	0	1
TAP	53	96	1
TAP	53	192	1
TAP	54	0	2
TAP	54	96	2
TAP	54	192	2
TAP	55	0	3
TAP	55	96	4
TAP	55	192	3
STR	56	0	4
SI_	56	0	4	96	288	7
TAP	58	0	0
TAP	58	192	0
TAP	59	0	7
TAP	59	96	0
BRK	59	192	7
TAP	60	0	6
TAP	60	0	7
TAP	60	192	6
TAP	60	192	7
TAP	61	0	5
TAP	61	96	4
TAP	61	192	5
TAP	62	0	2
TAP	62	0	3
TAP	62	192	2
TAP	62	192	3
TAP	63	0	1
TAP	63	96	0
TAP	63	192	1
TAP	64	0	0
TAP	64	0	1
TAP	64	192	0
TAP	64	192	1
TAP	65	0	2
TAP	65	96	3
TAP	65	192	2
TAP	66	0	4
TAP	66	0	5
TAP	66	192	4
TAP	66	192	5
HLD	67	0	6	192
HLD	67	0	7	192
STR	68	0	0
SI_	68	0	0	96	288	3
STR	70	0	7
SI_	70	0	7	96	288	4
STR	72	0	1
SI_	72	0	1	96	288	4
STR	74	0	6
SI_	74	0	6	96	288	3
STR	76	0	0
SI_	76	0	0	96	288	4
TAP	79	0	7
TAP	79	192	7
TAP	80	0	6
TAP	80	192	6
TAP	81	0	5
TAP	81	96	5
TAP	81	192	5
TAP	82	0	4
TAP	82	96	3
TAP	82	192	4
TAP	83	0	3
TAP	83	192	3
TAP	84	0	2
TAP	84	192	2
TAP	85	0	1
TAP	85	96	1
TAP	85	192	1
TAP	86	0	0
TAP	86	96	7
TAP	86	192	0
STR	87	0	7
SI_	87	0	7	96	288	3
TAP	89	0	3
TAP	89	96	4
TAP	89	192	3
BRK	90	0	2
BRK	90	0	5

T_REC_TAP	147
T_REC_BRK	6
T_REC_XTP	0
T_REC_HLD	8
T_REC_XHO	0
T_REC_STR	10
T_REC_BST	0
T_REC_XST	0
T_REC_TTP	0
T_REC_THO	0
T_REC_SLD	10
T_REC_ALL	181
T_NUM_TAP	157
T_NUM_BRK	6
T_NUM_HLD	8
T_NUM_SLD	10
T_NUM_ALL	181
T_JUDGE_TAP	163
T_JUDGE_HLD	40
T_JUDGE_SLD	10
T_JUDGE_ALL	213
TTM_EACHPAIRS	16
TTM_SCR_TAP	78500
TTM_SCR_BRK	15600
TTM_SCR_HLD	8000
TTM_SCR_SLD	15000
TTM_SCR_ALL	117100
TTM_SCR_S	113050
TTM_SCR_SS	116500
TTM_RAT_ACV	10051

