VERSION	0.00.00	1.03.00
FES_MODE	0
BPM_DEF	185.000	185.000	185.000	185.000
MET_DEF	4	4
RESOLUTION	384
CLK_DEF	384
COMPATIBLE_CODE	MA2

BPM	0	0	185.000
MET	0	0	4	4
MET	1	0	8	7
MET	1	336	4	4
MET	3	336	4	5
MET	5	48	4	4
MET	70	48	4	6
MET	71	240	4	4

TAP	1	0	0
TAP	1	48	1
TAP	1	96	2
TAP	1	120	3
TAP	1	144	2
TAP	1	192	7
TAP	1	240	6
TAP	1	288	5
STR	1	336	4
SI_	1	336	4	96	48	0
TAP	2	0	3
TAP	2	144	1
TAP	2	192	2
TAP	2	240	3
TAP	2	288	5
TAP	2	312	4
TAP	2	336	5
TAP	3	0	6
HLD	3	48	7	96
TAP	3	144	0
TAP	3	192	0
TAP	3	240	1
TAP	3	240	7
TAP	3	288	2
TAP	3	312	3
TAP	3	336	2
TAP	4	0	4
TAP	4	48	5
TAP	4	96	6
STR	4	144	7
SF_	4	144	7	96	96	3
TAP	4	240	7
TAP	5	48	0
HLD	5	48	7	384
TAP	5	144	2
TAP	5	240	4
STR	5	336	5
SXR	5	336	5	96	144	1
TAP	6	48	5
TAP	6	240	0
TAP	6	240	7
STR	6	288	0
SSL	6	288	0	96	48	4
STR	6	288	7
SSR	6	288	7	96	48	3
BRK	7	0	0
BRK	7	0	7
TAP	7	96	1
TAP	7	144	0
TAP	7	192	1
TAP	7	240	2
TAP	7	240	7
TAP	7	288	3
TAP	7	336	4
TAP	8	0	3
STR	8	48	5
SI_	8	48	5	96	48	0
TAP	8	96	4
TAP	8	144	3
TAP	8	192	2
TAP	8	240	1
TAP	8	288	0
TAP	8	288	2
TAP	8	336	3
TAP	8	336	7
TAP	9	0	4
TAP	9	0	6
TAP	9	96	6
TAP	9	144	7
TAP	9	192	6
TAP	9	240	0
TAP	9	240	5
TAP	9	288	4
TAP	9	336	3
TAP	10	0	4
STR	10	48	2
SI_	10	48	2	96	48	7
TAP	10	96	3
TAP	10	144	4
TAP	10	192	5
TAP	10	240	6
TAP	10	288	5
TAP	10	288	7
TAP	10	336	0
TAP	10	336	4
TAP	11	0	1
TAP	11	0	3
TAP	11	96	1
TAP	11	144	0
TAP	11	192	1
TAP	11	240	2
TAP	11	240	6
TAP	11	288	3
TAP	11	336	5
TAP	12	0	3
STR	12	48	4
SI_	12	48	4	96	48	0
TAP	12	96	1
TAP	12	144	2
TAP	12	192	3
TAP	12	240	4
TAP	12	288	3
TAP	12	288	5
TAP	12	336	2
TAP	12	336	6
TAP	13	0	1
TAP	13	0	7
TAP	13	96	6
TAP	13	144	7
TAP	13	192	6
TAP	13	240	1
TAP	13	240	5
TAP	13	288	4
TAP	13	336	2
TAP	14	0	4
STR	14	48	3
SI_	14	48	3	96	48	7
TAP	14	96	6
TAP	14	144	5
TAP	14	192	4
TAP	14	240	3
TAP	14	288	1
TAP	14	288	6
TAP	14	336	1
TAP	14	336	6
BRK	15	0	0
BRK	15	0	7
TAP	15	96	2
TAP	15	144	3
TAP	15	192	2
TAP	15	240	5
TAP	15	288	4
TAP	15	336	5
TAP	16	0	1
TAP	16	48	3
TAP	16	96	1
TAP	16	144	6
TAP	16	192	4
TAP	16	240	6
STR	16	288	0
SI_	16	288	0	96	48	4
BRK	17	0	0
TAP	17	96	3
TAP	17	96	5
TAP	17	144	3
TAP	17	144	5
TAP	17	240	1
TAP	17	240	6
TAP	17	336	1
TAP	17	336	6
TAP	18	48	2
TAP	18	48	5
TAP	18	144	3
TAP	18	144	4
TAP	18	192	3
TAP	18	192	4
TAP	18	240	5
TAP	18	288	6
TAP	18	336	7
STR	19	0	0
SXL	19	0	0	96	192	4
TAP	19	96	7
TAP	19	144	7
TAP	19	240	6
TAP	19	336	5
TAP	20	0	4
TAP	20	0	5
HLD	20	96	6	144
TAP	20	144	7
TAP	20	192	0
HLD	20	240	1	144
TAP	20	288	2
TAP	20	336	3
STR	21	0	4
SI_	21	0	4	96	48	0
TAP	21	96	7
TAP	21	144	7
TAP	21	240	5
TAP	21	240	7
TAP	21	336	0
TAP	21	336	2
TAP	22	48	6
TAP	22	72	7
TAP	22	96	5
TAP	22	120	0
TAP	22	144	4
TAP	22	168	1
TAP	22	192	3
TAP	22	216	2
TAP	22	240	4
TAP	22	264	1
TAP	22	288	5
TAP	22	312	0
TAP	22	336	6
BST	23	0	0
SI_	23	0	0	96	48	4
BRK	23	0	7
TAP	23	96	7
STR	23	144	7
SI_	23	144	7	96	48	3
STR	23	240	1
SI_	23	240	1	96	48	5
STR	23	336	6
SI_	23	336	6	96	48	2
STR	24	48	0
SI_	24	48	0	96	48	4
TAP	24	144	7
TAP	24	192	6
STR	24	240	5
SUL	24	240	5	96	120	2
TAP	24	336	1
STR	25	0	1
SCL	25	0	1	96	48	6
TAP	25	240	0
TAP	25	240	7
TAP	25	336	0
TAP	25	336	7
TAP	26	48	2
TAP	26	48	5
TAP	26	144	3
TAP	26	144	4
TAP	26	192	3
TAP	26	192	4
TAP	26	240	2
TAP	26	288	1
TAP	26	336	0
STR	27	0	7
SXR	27	0	7	96	192	3
TAP	27	96	0
TAP	27	144	0
TAP	27	240	1
TAP	27	336	2
TAP	28	0	2
TAP	28	0	3
HLD	28	96	1	144
TAP	28	144	0
TAP	28	192	7
HLD	28	240	6	144
TAP	28	288	5
TAP	28	336	4
STR	29	0	3
SI_	29	0	3	96	48	7
TAP	29	96	0
TAP	29	144	0
TAP	29	240	0
TAP	29	240	2
TAP	29	336	6
TAP	29	360	7
TAP	30	0	5
TAP	30	24	0
HLD	30	48	4	240
TAP	30	144	3
TAP	30	192	3
TAP	30	240	3
TAP	30	288	3
TAP	30	336	2
TAP	31	0	1
BST	31	0	5
SCR	31	0	5	96	96	1
TAP	31	192	5
TAP	31	240	4
TAP	31	288	3
TAP	31	336	2
STR	32	0	1
SCR	32	0	1	96	96	5
TAP	32	0	5
TAP	32	192	1
TAP	32	240	2
TAP	32	288	3
TAP	32	336	4
TAP	33	0	1
TAP	33	0	5
HLD	33	96	5	144
TAP	33	144	4
TAP	33	192	3
HLD	33	240	2	144
TAP	33	288	1
TAP	33	336	0
HLD	34	0	7	384
TAP	34	96	0
TAP	34	144	0
TAP	34	192	0
TAP	34	240	0
TAP	34	288	0
TAP	34	336	0
TAP	35	0	0
STR	35	144	6
SI_	35	144	6	96	48	2
STR	35	240	0
SI_	35	240	0	96	48	4
TAP	35	240	6
TAP	35	336	0
STR	35	336	7
SI_	35	336	7	96	48	3
STR	36	48	1
SI_	36	48	1	96	48	5
TAP	36	48	7
TAP	36	144	1
TAP	36	144	6
TAP	36	240	3
TAP	36	240	4
TAP	36	288	7
TAP	36	312	0
TAP	36	336	7
TAP	36	360	0
BST	37	0	1
SXR	37	0	1	96	192	3
BST	37	0	6
SXL	37	0	6	96	192	4
TAP	38	0	2
TAP	38	0	5
TAP	38	96	3
TAP	38	96	4
TAP	38	144	2
TAP	38	144	5
TAP	38	192	1
TAP	38	192	6
TAP	38	240	0
TAP	38	240	7
BRK	39	0	3
BRK	39	0	6
STR	39	96	1
SI_	39	96	1	96	48	5
STR	39	144	0
SI_	39	144	0	96	48	4
TAP	39	192	1
TAP	39	240	0
TAP	39	336	2
TAP	39	336	3
TAP	40	0	1
TAP	40	0	4
STR	40	96	6
SI_	40	96	6	96	48	2
STR	40	144	7
SI_	40	144	7	96	48	3
TAP	40	192	6
TAP	40	240	7
TAP	40	336	4
TAP	40	336	5
TAP	41	0	3
TAP	41	0	6
TAP	41	96	3
TAP	41	144	2
TAP	41	192	1
HLD	41	240	0	96
TAP	41	336	7
STR	42	0	7
SXR	42	0	7	96	192	4
TAP	42	96	0
TAP	42	144	1
TAP	42	192	2
TAP	42	240	3
STR	43	0	1
SI_	43	0	1	96	48	5
TAP	43	96	0
TAP	43	96	1
STR	43	192	6
SI_	43	192	6	96	48	2
TAP	43	288	6
TAP	43	288	7
STR	44	0	0
SI_	44	0	0	96	48	4
TAP	44	96	0
TAP	44	96	6
STR	44	192	7
SI_	44	192	7	96	48	3
TAP	44	288	1
TAP	44	288	7
HLD	45	0	0	384
TAP	45	96	1
TAP	45	144	1
TAP	45	192	1
TAP	45	240	1
TAP	45	288	2
TAP	45	336	3
TAP	46	0	4
TAP	46	96	0
TAP	46	120	4
TAP	46	144	1
TAP	46	168	5
TAP	46	192	2
TAP	46	216	6
TAP	46	240	3
STR	46	288	3
SI_	46	288	3	96	48	0
STR	46	288	7
SI_	46	288	7	96	48	4
BRK	47	0	3
BRK	47	0	7
TAP	47	96	6
TAP	47	120	7
TAP	47	144	6
TAP	47	168	7
TAP	47	192	6
TAP	47	240	1
TAP	47	240	5
STR	47	288	1
SI_	47	288	1	96	48	6
STR	47	288	5
SI_	47	288	5	96	48	2
BRK	48	0	1
BRK	48	0	5
TAP	48	96	1
TAP	48	120	0
TAP	48	144	1
TAP	48	168	0
TAP	48	192	1
TAP	48	240	2
TAP	48	240	6
STR	48	288	2
SI_	48	288	2	96	48	7
STR	48	288	6
SI_	48	288	6	96	48	3
TAP	49	0	2
TAP	49	0	6
TAP	49	96	4
TAP	49	144	5
TAP	49	192	6
HLD	49	240	7	96
TAP	49	336	0
STR	50	0	0
SXL	50	0	0	96	192	3
TAP	50	96	7
TAP	50	144	6
TAP	50	192	5
TAP	50	240	4
STR	51	0	6
SI_	51	0	6	96	48	2
TAP	51	96	6
TAP	51	96	7
STR	51	192	1
SI_	51	192	1	96	48	5
TAP	51	288	0
TAP	51	288	1
STR	52	0	7
SI_	52	0	7	96	48	3
TAP	52	96	1
TAP	52	96	7
STR	52	192	0
SI_	52	192	0	96	48	4
TAP	52	288	0
TAP	52	288	6
TAP	53	0	7
TAP	53	96	7
TAP	53	120	1
TAP	53	144	7
TAP	53	168	1
TAP	53	192	7
TAP	53	216	1
TAP	53	240	7
TAP	53	264	1
TAP	53	288	6
TAP	53	312	2
TAP	53	336	5
TAP	53	360	3
HLD	54	0	4	240
TAP	54	96	0
TAP	54	192	6
TAP	54	208	7
TAP	54	224	0
BRK	54	240	1
TAP	55	0	2
TAP	55	0	5
TAP	55	96	6
TAP	55	144	7
TAP	55	192	6
TAP	55	240	0
TAP	55	240	5
TAP	55	288	2
TAP	55	312	3
TAP	55	336	2
TAP	56	0	1
TAP	56	0	4
STR	56	48	2
SI_	56	48	2	96	48	7
TAP	56	96	3
TAP	56	144	4
TAP	56	192	5
TAP	56	240	6
TAP	56	288	6
TAP	56	288	7
TAP	56	336	1
TAP	56	336	5
TAP	57	0	2
TAP	57	0	3
TAP	57	96	1
TAP	57	144	0
TAP	57	192	1
TAP	57	240	2
TAP	57	240	7
TAP	57	288	5
TAP	57	312	4
TAP	57	336	5
TAP	58	0	3
TAP	58	0	6
TAP	58	48	5
TAP	58	96	2
TAP	58	144	4
TAP	58	168	3
TAP	58	192	4
TAP	58	216	3
TAP	58	240	2
TAP	58	240	5
TAP	58	288	6
TAP	58	288	7
TAP	58	336	0
TAP	58	336	1
BRK	59	0	2
BRK	59	0	5
TAP	59	96	6
TAP	59	144	7
TAP	59	192	6
TAP	59	240	0
TAP	59	240	4
TAP	59	288	2
TAP	59	312	3
TAP	59	336	2
TAP	60	0	1
TAP	60	0	5
STR	60	48	3
SI_	60	48	3	96	48	7
TAP	60	96	6
TAP	60	144	5
TAP	60	192	4
TAP	60	240	3
TAP	60	288	2
TAP	60	288	3
TAP	60	336	1
TAP	60	336	5
TAP	61	0	6
TAP	61	0	7
TAP	61	96	1
TAP	61	144	0
TAP	61	192	1
TAP	61	240	3
TAP	61	240	7
TAP	61	288	5
TAP	61	312	4
TAP	61	336	5
TAP	62	0	2
TAP	62	0	6
TAP	62	48	4
TAP	62	96	1
TAP	62	144	2
TAP	62	192	3
HLD	62	240	4	96
HLD	62	288	3	48
BRK	63	0	2
BRK	63	0	5
TAP	63	192	4
TAP	63	192	6
TAP	64	0	1
TAP	64	0	3
TAP	64	192	0
TAP	64	192	7
TAP	64	288	1
TAP	64	288	6
TAP	65	0	2
TAP	65	0	5
TAP	65	96	4
TAP	65	144	3
TAP	65	192	4
TAP	65	240	3
TAP	65	336	2
TAP	65	336	5
TAP	66	0	2
TAP	66	0	5
TAP	66	96	6
TAP	66	144	7
TAP	66	192	0
TAP	66	240	1
HLD	67	0	6	288
HLD	67	192	7	288
HLD	68	0	0	288
HLD	68	192	1	192
STR	69	0	2
SCL	69	0	2	96	192	5
TAP	71	48	0
TAP	71	48	7
TAP	71	96	2
TAP	71	120	3
TAP	71	144	2
BRK	71	192	0
BRK	71	192	5
STR	71	288	6
SI_	71	288	6	96	48	2
STR	71	336	7
SI_	71	336	7	96	48	3
TAP	72	0	6
TAP	72	48	7
TAP	72	144	4
TAP	72	144	5
TAP	72	192	2
TAP	72	192	7
STR	72	288	1
SI_	72	288	1	96	48	5
STR	72	336	0
SI_	72	336	0	96	48	4
TAP	73	0	1
TAP	73	48	0
TAP	73	144	2
TAP	73	144	3
TAP	73	192	0
TAP	73	192	5
TAP	73	288	3
TAP	73	336	4
TAP	74	0	5
TAP	74	48	0
HLD	74	48	6	96
TAP	74	144	7
STR	74	192	7
SXL	74	192	7	96	192	2
TAP	74	288	6
TAP	74	336	5
TAP	75	0	4
TAP	75	48	3
STR	75	192	6
SI_	75	192	6	96	48	2
TAP	75	192	7
TAP	75	288	0
TAP	75	288	6
TAP	76	0	0
STR	76	0	1
SI_	76	0	1	96	48	5
TAP	76	96	1
TAP	76	96	7
TAP	76	192	6
STR	76	192	7
SI_	76	192	7	96	48	3
TAP	76	288	1
TAP	76	288	7
STR	77	0	0
SI_	77	0	0	96	48	4
TAP	77	0	1
TAP	77	96	0
TAP	77	96	6
TAP	77	192	0
HLD	77	192	7	384
TAP	77	288	6
TAP	77	336	6
TAP	78	0	6
TAP	78	48	6
TAP	78	96	5
TAP	78	144	4
TAP	78	192	3
TAP	78	288	7
TAP	78	312	3
TAP	78	336	6
TAP	78	360	2
TAP	79	0	5
TAP	79	24	1
TAP	79	48	4
STR	79	96	0
SI_	79	96	0	96	48	3
STR	79	96	4
SI_	79	96	4	96	48	7
BRK	79	192	0
BRK	79	192	4
TAP	79	288	1
TAP	79	312	0
TAP	79	336	1
TAP	79	360	0
TAP	80	0	1
TAP	80	48	2
TAP	80	48	5
STR	80	96	2
SI_	80	96	2	96	48	6
STR	80	96	5
SI_	80	96	5	96	48	3
BRK	80	192	2
BRK	80	192	5
TAP	80	288	5
TAP	80	312	4
TAP	80	336	5
TAP	80	360	4
TAP	81	0	5
TAP	81	48	1
TAP	81	48	6
STR	81	96	1
SI_	81	96	1	96	48	5
STR	81	96	6
SI_	81	96	6	96	48	0
TAP	81	192	1
TAP	81	192	6
TAP	81	288	2
TAP	81	312	3
TAP	81	336	1
TAP	82	0	5
TAP	82	24	4
TAP	82	48	6
TAP	82	96	2
TAP	82	120	3
TAP	82	144	0
TAP	82	192	5
TAP	82	216	4
TAP	82	240	7
TAP	82	288	0
TAP	82	288	1
TAP	82	336	2
TAP	82	336	3
TAP	83	0	4
TAP	83	0	5
TAP	83	48	6
TAP	83	48	7
TAP	83	96	4
TAP	83	120	3
TAP	83	144	4
STR	83	192	2
SI_	83	192	2	96	48	6
TAP	83	192	3
TAP	83	288	2
TAP	83	288	4
TAP	84	0	4
STR	84	0	5
SI_	84	0	5	96	48	1
TAP	84	96	3
TAP	84	96	5
TAP	84	192	2
STR	84	192	3
SI_	84	192	3	96	48	7
TAP	84	288	3
TAP	84	288	5
STR	85	0	4
SI_	85	0	4	96	48	0
TAP	85	0	5
TAP	85	96	2
TAP	85	96	4
TAP	85	192	1
TAP	85	192	6
TAP	85	288	0
TAP	85	312	6
TAP	85	336	0
TAP	85	360	6
TAP	86	0	0
TAP	86	24	6
TAP	86	48	0
TAP	86	72	6
TAP	86	96	1
TAP	86	120	5
TAP	86	144	2
TAP	86	168	4
BST	86	192	3
SSR	86	192	3	96	96	7
BRK	87	96	5
BRK	87	96	7
BRK	87	192	0
BRK	87	192	2
TAP	87	288	5
TAP	87	312	4
TAP	87	336	6
TAP	88	0	2
TAP	88	24	3
TAP	88	48	1
STR	88	96	0
SSL	88	96	0	96	48	4
STR	88	96	7
SSR	88	96	7	96	48	3
BRK	88	192	0
BRK	88	192	7
TAP	88	288	1
TAP	88	336	0
TAP	89	0	1
TAP	89	48	2
TAP	89	48	7
TAP	89	96	7
TAP	89	112	6
TAP	89	128	5
TAP	89	144	4
TAP	89	192	0
STR	89	240	5
SI_	89	240	5	96	48	0
TAP	89	288	4
TAP	89	336	3
TAP	90	0	2
TAP	90	48	1
TAP	90	96	0
TAP	90	96	1
TAP	90	144	4
TAP	90	144	6
TAP	90	192	2
TAP	90	192	3
TAP	90	288	6
TAP	90	336	7
TAP	91	0	6
TAP	91	48	0
TAP	91	48	5
TAP	91	96	0
TAP	91	112	1
TAP	91	128	2
TAP	91	144	3
TAP	91	192	7
STR	91	240	2
SI_	91	240	2	96	48	7
TAP	91	288	3
TAP	91	336	4
TAP	92	0	5
TAP	92	48	6
TAP	92	96	6
TAP	92	96	7
TAP	92	144	1
TAP	92	144	3
TAP	92	192	4
TAP	92	192	5
TAP	92	288	1
TAP	92	336	0
TAP	93	0	1
TAP	93	48	2
TAP	93	48	6
TAP	93	96	6
TAP	93	112	5
TAP	93	128	4
TAP	93	144	3
TAP	93	192	0
STR	93	240	4
SI_	93	240	4	96	48	0
TAP	93	288	1
TAP	93	336	2
TAP	94	0	3
TAP	94	48	4
TAP	94	96	4
TAP	94	96	5
TAP	94	144	0
TAP	94	144	2
TAP	94	192	6
TAP	94	192	7
TAP	94	288	6
TAP	94	336	7
TAP	95	0	6
TAP	95	48	1
TAP	95	48	5
TAP	95	96	1
TAP	95	112	2
TAP	95	128	3
TAP	95	144	4
TAP	95	192	7
TAP	95	240	3
TAP	95	288	6
TAP	95	336	5
TAP	96	0	4
TAP	96	48	2
TAP	96	48	6
TAP	96	96	0
TAP	96	96	4
TAP	96	144	2
TAP	96	144	6
BST	96	192	0
SXL	96	192	0	96	336	4
BST	96	192	4
SXL	96	192	4	96	336	0
TAP	98	48	3
TAP	98	48	4
TAP	98	96	5
TAP	98	96	7
TAP	98	144	0
TAP	98	144	2
HLD	98	192	0	264
BRK	98	192	7
TAP	99	24	2
TAP	99	40	3
TAP	99	56	4
TAP	99	72	5

T_REC_TAP	650
T_REC_BRK	30
T_REC_XTP	0
T_REC_HLD	23
T_REC_XHO	0
T_REC_STR	72
T_REC_BST	7
T_REC_XST	0
T_REC_TTP	0
T_REC_THO	0
T_REC_SLD	79
T_REC_ALL	861
T_NUM_TAP	722
T_NUM_BRK	37
T_NUM_HLD	23
T_NUM_SLD	79
T_NUM_ALL	861
T_JUDGE_TAP	759
T_JUDGE_HLD	99
T_JUDGE_SLD	79
T_JUDGE_ALL	937
TTM_EACHPAIRS	163
TTM_SCR_TAP	361000
TTM_SCR_BRK	96200
TTM_SCR_HLD	23000
TTM_SCR_SLD	118500
TTM_SCR_ALL	598700
TTM_SCR_S	577150
TTM_SCR_SS	595000
TTM_RAT_ACV	10062

