VERSION	0.00.00	1.03.00
FES_MODE	0
BPM_DEF	185.000	185.000	185.000	185.000
MET_DEF	4	4
RESOLUTION	384
CLK_DEF	384
COMPATIBLE_CODE	MA2

BPM	0	0	185.000
MET	0	0	4	4
MET	4	0	4	5
MET	5	96	4	4
MET	70	96	4	6
MET	71	288	4	4

STR	1	0	0
SXL	1	0	0	96	432	4
STR	3	0	7
SXR	3	0	7	96	432	3
HLD	4	144	0	96
HLD	4	240	7	96
TAP	4	336	0
TAP	5	48	1
TAP	5	48	6
TAP	5	144	2
TAP	5	240	1
TAP	5	240	3
TAP	5	336	5
TAP	6	48	4
TAP	6	48	6
TAP	6	144	2
TAP	6	144	5
TAP	6	240	3
TAP	6	240	4
TAP	6	288	3
TAP	6	288	4
BRK	7	0	1
BRK	7	0	6
TAP	7	144	6
TAP	7	144	7
TAP	7	240	7
TAP	7	288	6
TAP	7	336	5
TAP	8	48	7
TAP	8	96	0
TAP	8	144	1
TAP	8	240	0
TAP	8	240	5
TAP	8	336	3
TAP	8	336	6
TAP	9	0	3
TAP	9	0	6
TAP	9	144	4
TAP	9	144	5
TAP	9	240	4
TAP	9	288	5
TAP	9	336	6
TAP	10	48	4
TAP	10	96	3
TAP	10	144	2
TAP	10	240	3
TAP	10	240	6
TAP	10	336	0
TAP	10	336	4
TAP	11	0	0
TAP	11	0	4
TAP	11	144	0
TAP	11	144	1
TAP	11	240	0
TAP	11	288	1
TAP	11	336	2
TAP	12	48	0
TAP	12	96	7
TAP	12	144	6
TAP	12	240	2
TAP	12	240	7
TAP	12	336	1
TAP	12	336	4
TAP	13	0	1
TAP	13	0	4
TAP	13	144	2
TAP	13	144	3
TAP	13	240	3
TAP	13	288	2
TAP	13	336	1
TAP	14	48	3
TAP	14	96	4
TAP	14	144	5
TAP	14	240	1
TAP	14	240	4
TAP	14	336	3
TAP	14	336	7
BRK	15	0	3
BRK	15	0	7
TAP	15	144	3
TAP	15	240	3
TAP	15	336	3
TAP	16	48	4
TAP	16	144	4
TAP	16	240	4
TAP	16	336	3
TAP	16	336	4
TAP	17	0	3
TAP	17	0	4
TAP	17	144	2
TAP	17	144	5
TAP	17	240	6
TAP	17	336	5
TAP	17	336	7
TAP	18	48	0
TAP	18	144	1
TAP	18	144	7
TAP	18	240	2
TAP	18	336	1
TAP	18	336	4
TAP	19	0	1
TAP	19	0	4
TAP	19	144	3
TAP	19	240	2
TAP	19	240	4
TAP	19	336	1
TAP	20	48	0
TAP	20	48	2
TAP	20	144	7
TAP	20	240	0
TAP	20	240	6
TAP	20	336	5
TAP	21	0	5
TAP	21	144	4
TAP	21	144	6
TAP	21	240	2
STR	21	336	1
SUL	21	336	1	96	192	4
TAP	21	336	3
TAP	22	336	7
BRK	23	0	7
TAP	23	144	1
TAP	23	240	0
TAP	23	240	2
TAP	23	336	3
TAP	24	48	2
TAP	24	48	4
TAP	24	144	5
TAP	24	240	4
TAP	24	240	6
TAP	24	336	7
TAP	25	0	7
TAP	25	144	0
TAP	25	144	6
TAP	25	240	5
TAP	25	336	4
TAP	25	336	6
TAP	26	48	3
TAP	26	144	2
TAP	26	144	4
TAP	26	240	1
TAP	26	336	2
TAP	26	336	7
TAP	27	0	2
TAP	27	0	7
TAP	27	144	0
TAP	27	240	1
TAP	27	240	7
TAP	27	336	2
TAP	28	48	1
TAP	28	48	3
TAP	28	144	4
TAP	28	240	3
TAP	28	240	5
TAP	28	336	6
TAP	29	0	6
TAP	29	144	5
TAP	29	144	7
TAP	29	240	1
TAP	29	336	0
TAP	29	336	2
TAP	30	48	0
TAP	30	48	7
TAP	30	144	1
TAP	30	144	6
TAP	30	240	2
TAP	30	240	5
STR	30	336	3
SLR	30	336	3	96	288	0
STR	30	336	4
SLR	30	336	4	96	288	0
HLD	32	48	1	96
HLD	32	144	7	96
TAP	32	240	0
STR	32	336	0
SLR	32	336	0	96	288	4
STR	32	336	7
SLR	32	336	7	96	288	4
HLD	34	48	5	96
HLD	34	144	3	96
TAP	34	240	4
STR	34	336	3
SUR	34	336	3	96	288	0
STR	34	336	4
SUL	34	336	4	96	288	7
HLD	36	48	1	96
HLD	36	144	3	96
HLD	36	240	4	96
TAP	36	336	6
TAP	37	0	6
TAP	38	0	1
TAP	38	0	3
TAP	38	96	4
TAP	38	96	6
TAP	38	192	3
TAP	38	192	4
TAP	38	240	3
TAP	38	240	4
TAP	38	336	1
TAP	38	336	6
BRK	39	0	1
BRK	39	0	6
TAP	39	96	2
TAP	39	192	3
TAP	39	192	4
TAP	39	240	3
TAP	39	240	4
TAP	39	336	2
HLD	40	0	2	96
TAP	40	96	5
TAP	40	192	6
TAP	40	192	7
TAP	40	240	6
TAP	40	240	7
TAP	40	336	5
HLD	41	0	5	96
TAP	41	96	3
TAP	41	192	3
TAP	41	192	4
TAP	41	240	3
TAP	41	240	4
TAP	41	336	2
HLD	42	0	2	96
TAP	42	96	0
TAP	42	192	0
TAP	42	192	7
TAP	42	240	0
TAP	42	240	7
TAP	42	336	2
TAP	42	336	4
TAP	43	0	2
TAP	43	0	4
TAP	43	96	3
TAP	43	96	6
TAP	43	192	1
TAP	43	192	4
TAP	43	288	2
TAP	43	288	7
TAP	44	0	0
TAP	44	0	5
TAP	44	96	2
TAP	44	96	6
BRK	44	192	0
BRK	44	192	4
TAP	44	288	6
HLD	45	0	0	96
HLD	45	96	7	96
HLD	45	192	1	96
STR	45	288	6
SI_	45	288	6	96	48	2
TAP	46	96	1
STR	46	144	1
SI_	46	144	1	96	48	5
TAP	47	0	7
TAP	47	96	6
TAP	47	96	7
TAP	47	192	0
TAP	47	192	5
TAP	47	240	0
TAP	47	240	5
TAP	47	336	4
HLD	48	0	4	96
TAP	48	96	2
TAP	48	192	0
TAP	48	192	1
TAP	48	240	0
TAP	48	240	1
TAP	48	336	2
HLD	49	0	2	96
TAP	49	96	4
TAP	49	192	3
TAP	49	192	4
TAP	49	240	3
TAP	49	240	4
TAP	49	336	5
HLD	50	0	5	96
TAP	50	96	7
TAP	50	192	0
TAP	50	192	7
TAP	50	240	0
TAP	50	240	7
TAP	50	336	3
TAP	50	336	5
TAP	51	0	3
TAP	51	0	5
TAP	51	96	1
TAP	51	96	4
TAP	51	192	3
TAP	51	192	6
TAP	51	288	0
TAP	51	288	5
TAP	52	0	2
TAP	52	0	7
TAP	52	96	3
TAP	52	96	4
TAP	52	192	2
TAP	52	192	5
TAP	52	288	1
TAP	52	288	6
STR	53	0	0
SUL	53	0	0	96	144	4
STR	53	0	7
SUR	53	0	7	96	144	3
TAP	53	336	1
TAP	53	336	6
BRK	54	0	1
BRK	54	0	6
TAP	54	336	0
TAP	54	336	7
BRK	55	0	0
BRK	55	0	7
TAP	55	144	0
TAP	55	144	1
TAP	55	240	0
TAP	55	288	1
TAP	55	336	2
TAP	56	48	0
TAP	56	96	7
TAP	56	144	6
TAP	56	240	2
TAP	56	240	7
TAP	56	336	1
TAP	56	336	4
TAP	57	0	1
TAP	57	0	4
TAP	57	144	2
TAP	57	144	3
TAP	57	240	3
TAP	57	288	2
TAP	57	336	1
TAP	58	48	3
TAP	58	96	4
TAP	58	144	5
TAP	58	240	1
TAP	58	240	4
TAP	58	336	3
TAP	58	336	7
TAP	59	0	3
TAP	59	0	7
TAP	59	144	6
TAP	59	144	7
TAP	59	240	7
TAP	59	288	6
TAP	59	336	5
TAP	60	48	7
TAP	60	96	0
TAP	60	144	1
TAP	60	240	0
TAP	60	240	5
TAP	60	336	3
TAP	60	336	6
TAP	61	0	3
TAP	61	0	6
TAP	61	144	4
TAP	61	144	5
TAP	61	240	4
TAP	61	288	5
TAP	61	336	6
TAP	62	48	4
TAP	62	96	3
TAP	62	144	2
HLD	62	240	3	144
BST	63	0	6
SI_	63	0	6	96	192	3
TAP	63	336	1
STR	64	0	1
SI_	64	0	1	96	192	4
TAP	64	336	7
STR	65	0	7
SCL	65	0	7	96	192	4
TAP	65	336	0
STR	66	0	0
SCR	66	0	0	96	216	3
TAP	66	336	6
HLD	67	0	6	192
HLD	67	192	5	192
HLD	68	0	4	192
HLD	68	192	3	192
STR	69	0	4
SCL	69	0	4	96	144	1
SCR	69	0	4	96	144	6
TAP	69	336	0
TAP	69	336	7
BRK	70	0	0
BRK	70	0	7
TAP	71	144	1
TAP	71	144	6
BRK	71	192	1
BRK	71	192	6
TAP	71	288	5
TAP	72	0	3
TAP	72	0	4
TAP	72	48	3
TAP	72	48	4
TAP	72	144	5
HLD	72	192	4	96
TAP	72	288	0
TAP	73	0	0
TAP	73	0	1
TAP	73	48	0
TAP	73	48	1
TAP	73	144	1
HLD	73	192	0	96
TAP	73	288	3
TAP	74	0	3
TAP	74	0	4
TAP	74	48	3
TAP	74	48	4
TAP	74	144	5
HLD	74	192	4	96
TAP	74	288	7
TAP	75	0	0
TAP	75	0	7
TAP	75	48	0
TAP	75	48	7
TAP	75	144	3
TAP	75	144	5
TAP	75	192	3
TAP	75	192	5
TAP	75	288	1
TAP	75	288	4
TAP	76	0	3
TAP	76	0	6
TAP	76	96	0
TAP	76	96	5
TAP	76	192	2
TAP	76	192	7
TAP	76	288	1
TAP	76	288	5
BRK	77	0	3
BRK	77	0	7
TAP	77	96	1
HLD	77	192	4	96
HLD	77	288	3	96
HLD	78	0	5	96
STR	78	96	2
SI_	78	96	2	96	48	6
TAP	78	288	5
STR	78	336	5
SI_	78	336	5	96	48	1
TAP	79	192	0
TAP	79	288	0
TAP	79	288	1
TAP	80	0	2
TAP	80	0	7
TAP	80	48	2
TAP	80	48	7
TAP	80	144	3
HLD	80	192	4	96
TAP	80	288	6
TAP	81	0	6
TAP	81	0	7
TAP	81	48	6
TAP	81	48	7
TAP	81	144	7
HLD	81	192	6	96
TAP	81	288	4
TAP	82	0	3
TAP	82	0	4
TAP	82	48	3
TAP	82	48	4
TAP	82	144	2
HLD	82	192	3	96
TAP	82	288	0
TAP	83	0	0
TAP	83	0	7
TAP	83	48	0
TAP	83	48	7
TAP	83	144	2
TAP	83	144	4
TAP	83	192	2
TAP	83	192	4
TAP	83	288	3
TAP	83	288	6
TAP	84	0	1
TAP	84	0	4
TAP	84	96	2
TAP	84	96	7
TAP	84	192	0
TAP	84	192	5
TAP	84	288	3
TAP	84	288	4
TAP	85	0	2
TAP	85	0	5
TAP	85	96	1
TAP	85	96	6
STR	85	192	0
SUL	85	192	0	96	144	4
STR	85	192	7
SUR	85	192	7	96	144	3
TAP	86	144	1
TAP	86	144	6
BRK	86	192	1
BRK	86	192	6
TAP	87	96	0
TAP	87	96	7
TAP	87	192	2
TAP	87	192	5
TAP	88	144	1
TAP	88	144	6
BRK	88	192	1
BRK	88	192	6
TAP	88	336	6
TAP	88	336	7
TAP	89	48	7
TAP	89	96	6
TAP	89	144	5
TAP	89	240	7
TAP	89	288	0
TAP	89	336	1
TAP	90	48	0
TAP	90	48	5
TAP	90	144	3
TAP	90	144	6
TAP	90	192	3
TAP	90	192	6
TAP	90	336	4
TAP	90	336	5
TAP	91	48	4
TAP	91	96	5
TAP	91	144	6
TAP	91	240	4
TAP	91	288	3
TAP	91	336	2
TAP	92	48	3
TAP	92	48	6
TAP	92	144	0
TAP	92	144	4
TAP	92	192	0
TAP	92	192	4
TAP	92	336	0
TAP	92	336	1
TAP	93	48	0
TAP	93	96	1
TAP	93	144	2
TAP	93	240	0
TAP	93	288	7
TAP	93	336	6
TAP	94	48	2
TAP	94	48	7
TAP	94	144	1
TAP	94	144	4
TAP	94	192	1
TAP	94	192	4
TAP	94	336	2
TAP	94	336	3
TAP	95	48	3
TAP	95	96	2
TAP	95	144	1
TAP	95	240	3
TAP	95	288	4
TAP	95	336	5
TAP	96	48	1
TAP	96	48	4
TAP	96	144	3
TAP	96	144	7
TAP	96	192	3
TAP	96	192	7
TAP	96	288	0
TAP	97	0	0
TAP	97	96	6
TAP	97	192	6
TAP	97	288	2
TAP	98	0	2
TAP	98	48	4
TAP	98	96	3
TAP	98	144	4
STR	98	192	3
SI_	98	192	3	96	192	7

T_REC_TAP	467
T_REC_BRK	23
T_REC_XTP	0
T_REC_HLD	32
T_REC_XHO	0
T_REC_STR	22
T_REC_BST	1
T_REC_XST	0
T_REC_TTP	0
T_REC_THO	0
T_REC_SLD	24
T_REC_ALL	569
T_NUM_TAP	489
T_NUM_BRK	24
T_NUM_HLD	32
T_NUM_SLD	24
T_NUM_ALL	569
T_JUDGE_TAP	513
T_JUDGE_HLD	73
T_JUDGE_SLD	24
T_JUDGE_ALL	610
TTM_EACHPAIRS	173
TTM_SCR_TAP	244500
TTM_SCR_BRK	62400
TTM_SCR_HLD	32000
TTM_SCR_SLD	36000
TTM_SCR_ALL	374900
TTM_SCR_S	361350
TTM_SCR_SS	372500
TTM_RAT_ACV	10064

