VERSION	0.00.00	1.03.00
FES_MODE	0
BPM_DEF	185.000	185.000	185.000	185.000
MET_DEF	4	4
RESOLUTION	384
CLK_DEF	384
COMPATIBLE_CODE	MA2

BPM	0	0	185.000
MET	0	0	4	4
MET	4	0	8	9
MET	5	48	4	4
MET	70	48	4	6
MET	71	240	4	4

TAP	7	48	2
TAP	7	144	2
TAP	7	240	2
TAP	8	48	5
TAP	8	144	5
TAP	8	240	5
TAP	9	48	2
TAP	9	144	2
TAP	9	240	1
TAP	10	48	5
TAP	10	144	5
TAP	10	240	6
TAP	11	48	2
TAP	11	144	1
TAP	11	240	0
TAP	12	48	5
TAP	12	144	6
TAP	12	240	7
TAP	13	48	0
TAP	13	144	7
TAP	13	240	0
TAP	14	48	0
TAP	14	48	7
TAP	14	144	0
TAP	14	144	7
TAP	14	240	1
TAP	14	240	6
TAP	15	48	2
TAP	15	144	2
TAP	15	240	1
TAP	15	240	3
TAP	16	48	5
TAP	16	144	5
TAP	16	240	4
TAP	16	240	6
TAP	17	48	2
TAP	17	144	2
TAP	17	240	3
TAP	17	336	3
TAP	18	48	2
TAP	18	144	3
TAP	18	240	1
TAP	18	240	4
TAP	19	48	5
TAP	19	144	5
TAP	19	240	4
TAP	19	336	4
TAP	20	48	5
TAP	20	144	4
TAP	20	240	3
TAP	20	240	6
TAP	21	48	2
TAP	21	144	2
TAP	21	240	1
TAP	21	336	1
TAP	22	48	0
TAP	22	144	0
BRK	22	240	7
TAP	23	48	6
TAP	23	144	6
TAP	23	240	5
TAP	23	240	7
TAP	24	48	1
TAP	24	144	1
TAP	24	240	0
TAP	24	240	2
TAP	25	48	6
TAP	25	144	6
TAP	25	240	7
TAP	25	336	7
TAP	26	48	6
TAP	26	144	7
TAP	26	240	0
TAP	26	240	5
TAP	27	48	1
TAP	27	144	1
TAP	27	240	0
TAP	27	336	0
TAP	28	48	1
TAP	28	144	0
TAP	28	240	2
TAP	28	240	7
TAP	29	48	5
TAP	29	144	5
TAP	29	240	6
TAP	29	336	6
TAP	30	48	7
TAP	30	144	7
BRK	30	240	0
STR	31	48	0
SCL	31	48	0	96	288	5
STR	31	48	1
SCR	31	48	1	96	288	4
STR	33	48	6
SCL	33	48	6	96	288	3
STR	33	48	7
SCR	33	48	7	96	288	2
STR	35	48	3
SCL	35	48	3	96	288	0
STR	35	48	4
SCR	35	48	4	96	288	7
TAP	37	48	0
TAP	37	48	7
TAP	37	144	0
TAP	37	144	7
HLD	37	240	1	96
HLD	37	240	6	96
TAP	38	0	1
TAP	38	0	6
TAP	39	48	0
TAP	39	48	1
TAP	39	144	0
TAP	39	144	1
TAP	39	240	2
TAP	39	240	7
TAP	40	48	6
TAP	40	48	7
TAP	40	144	6
TAP	40	144	7
TAP	40	240	0
TAP	40	240	5
TAP	41	48	2
TAP	41	144	3
TAP	41	240	2
TAP	41	336	1
TAP	41	336	4
TAP	42	48	0
TAP	42	144	7
TAP	42	240	1
TAP	42	240	6
TAP	43	48	0
TAP	43	144	0
TAP	43	240	1
TAP	43	336	1
TAP	44	48	2
TAP	44	144	2
TAP	44	240	3
TAP	44	336	3
TAP	45	48	4
TAP	45	144	4
TAP	45	240	5
TAP	45	336	5
TAP	46	48	6
TAP	46	144	6
TAP	46	240	0
TAP	46	240	7
TAP	47	48	6
TAP	47	48	7
TAP	47	144	6
TAP	47	144	7
TAP	47	240	0
TAP	47	240	5
TAP	48	48	0
TAP	48	48	1
TAP	48	144	0
TAP	48	144	1
TAP	48	240	2
TAP	48	240	7
TAP	49	48	5
TAP	49	144	4
TAP	49	240	5
TAP	49	336	3
TAP	49	336	6
TAP	50	48	7
TAP	50	144	0
TAP	50	240	1
TAP	50	240	6
TAP	51	48	5
TAP	51	144	5
TAP	51	240	4
TAP	51	336	4
TAP	52	48	3
TAP	52	144	3
STR	52	240	2
SCL	52	240	2	96	240	5
TAP	53	336	1
TAP	53	336	6
TAP	54	0	1
TAP	54	0	6
HLD	55	48	2	96
TAP	55	144	3
TAP	55	240	2
HLD	56	48	5	96
TAP	56	144	4
TAP	56	240	5
HLD	57	48	1	96
TAP	57	144	2
TAP	57	240	1
HLD	58	48	6	96
TAP	58	144	5
TAP	58	240	6
HLD	59	48	1	96
TAP	59	144	0
TAP	59	240	1
HLD	60	48	6	96
TAP	60	144	7
TAP	60	240	6
TAP	61	48	0
TAP	61	48	7
TAP	61	144	0
TAP	61	144	7
TAP	61	240	1
TAP	61	240	6
HLD	62	48	0	192
HLD	62	48	7	192
HLD	63	240	5	384
HLD	64	240	4	384
HLD	65	240	3	384
HLD	66	240	2	384
HLD	67	240	1	384
HLD	68	240	0	384
STR	69	240	7
SCL	69	240	7	96	384	0
HLD	71	240	2	96
TAP	71	336	3
TAP	72	48	0
TAP	72	48	4
HLD	72	240	5	96
TAP	72	336	4
TAP	73	48	3
TAP	73	48	7
TAP	73	240	2
TAP	73	336	2
TAP	73	336	3
TAP	74	48	5
TAP	74	144	4
TAP	74	144	5
TAP	74	240	6
TAP	74	336	6
TAP	74	336	7
TAP	75	48	0
TAP	75	48	5
TAP	75	240	7
TAP	75	336	7
TAP	76	48	6
TAP	76	144	6
TAP	76	240	5
TAP	76	336	5
TAP	77	48	4
TAP	77	144	4
TAP	77	240	3
TAP	77	336	3
TAP	78	48	2
TAP	78	144	2
TAP	78	240	1
TAP	78	336	1
TAP	79	48	0
TAP	79	48	7
TAP	79	240	4
TAP	79	240	5
TAP	79	336	4
TAP	79	336	5
BRK	80	48	3
BRK	80	48	7
TAP	80	240	2
TAP	80	240	3
TAP	80	336	2
TAP	80	336	3
BRK	81	48	0
BRK	81	48	4
TAP	81	240	5
TAP	81	336	4
TAP	81	336	5
TAP	82	48	2
TAP	82	144	2
TAP	82	144	3
TAP	82	240	1
TAP	82	336	0
TAP	82	336	1
TAP	83	48	2
TAP	83	48	7
TAP	83	240	2
TAP	83	336	2
TAP	84	48	3
TAP	84	144	3
TAP	84	240	4
TAP	84	336	4
STR	85	48	5
SCR	85	48	5	96	240	2
TAP	86	144	1
TAP	86	144	6
TAP	86	192	1
TAP	86	192	6
TAP	87	144	0
TAP	87	144	7
TAP	87	192	0
TAP	87	192	7
TAP	88	144	1
TAP	88	144	6
TAP	88	192	1
TAP	88	192	6
TAP	88	336	2
TAP	89	48	3
TAP	89	144	4
TAP	89	240	5
TAP	89	336	6
TAP	90	48	0
TAP	90	48	7
TAP	90	144	0
TAP	90	144	7
TAP	90	240	6
TAP	90	336	5
TAP	91	48	4
TAP	91	144	3
TAP	91	240	2
TAP	91	336	1
TAP	92	48	0
TAP	92	48	7
TAP	92	240	1
TAP	92	336	2
TAP	93	48	3
TAP	93	144	4
TAP	93	240	6
TAP	93	336	5
TAP	94	48	4
TAP	94	144	3
TAP	94	240	1
TAP	94	336	2
TAP	95	48	3
TAP	95	144	4
TAP	95	240	5
TAP	95	336	6
TAP	96	48	0
TAP	96	48	7
TAP	96	144	0
TAP	96	144	7
TAP	96	240	6
TAP	96	336	5
TAP	97	48	4
TAP	97	144	3
TAP	97	240	2
TAP	97	336	1
TAP	98	48	0
TAP	98	48	7
TAP	98	144	1
TAP	98	144	6
TAP	98	192	1
TAP	98	192	6

T_REC_TAP	296
T_REC_BRK	6
T_REC_XTP	0
T_REC_HLD	18
T_REC_XHO	0
T_REC_STR	9
T_REC_BST	0
T_REC_XST	0
T_REC_TTP	0
T_REC_THO	0
T_REC_SLD	9
T_REC_ALL	338
T_NUM_TAP	305
T_NUM_BRK	6
T_NUM_HLD	18
T_NUM_SLD	9
T_NUM_ALL	338
T_JUDGE_TAP	311
T_JUDGE_HLD	76
T_JUDGE_SLD	9
T_JUDGE_ALL	396
TTM_EACHPAIRS	72
TTM_SCR_TAP	152500
TTM_SCR_BRK	15600
TTM_SCR_HLD	18000
TTM_SCR_SLD	13500
TTM_SCR_ALL	199600
TTM_SCR_S	193050
TTM_SCR_SS	199000
TTM_RAT_ACV	10030

