VERSION	0.00.00	1.03.00
FES_MODE	0
BPM_DEF	185.000	185.000	185.000	185.000
MET_DEF	4	4
RESOLUTION	384
CLK_DEF	384
COMPATIBLE_CODE	MA2

BPM	0	0	185.000
MET	0	0	4	4
MET	4	0	8	9
MET	5	48	4	4
MET	70	48	4	6
MET	71	240	4	4

HLD	5	48	0	576
TAP	7	48	0
TAP	7	240	0
TAP	8	48	1
TAP	8	240	1
TAP	9	48	2
TAP	9	240	2
TAP	10	48	3
TAP	10	48	4
TAP	11	48	4
TAP	11	240	4
TAP	12	48	5
TAP	12	240	5
TAP	13	48	6
TAP	13	240	6
TAP	14	48	7
TAP	14	240	7
BRK	15	48	0
BRK	15	48	7
TAP	17	48	0
TAP	17	240	0
TAP	18	48	1
TAP	18	240	1
HLD	19	48	2	192
TAP	20	48	3
TAP	20	240	3
STR	21	48	4
SI_	21	48	4	96	288	7
TAP	23	48	7
TAP	23	240	7
TAP	24	48	6
TAP	24	240	6
HLD	25	48	5	192
HLD	26	48	4	192
HLD	26	48	5	192
TAP	27	48	3
TAP	27	240	3
TAP	28	48	2
TAP	28	240	2
HLD	29	48	1	192
BRK	30	48	0
BRK	30	48	7
STR	31	48	0
SI_	31	48	0	96	288	4
TAP	33	48	5
TAP	33	240	5
TAP	34	48	6
TAP	34	48	7
STR	35	48	7
SI_	35	48	7	96	288	3
TAP	37	48	2
TAP	37	48	3
TAP	38	48	1
TAP	38	144	1
TAP	38	240	1
TAP	39	48	0
TAP	39	144	0
TAP	39	240	0
TAP	40	48	7
TAP	40	144	7
TAP	40	240	7
TAP	41	48	6
TAP	41	48	7
TAP	41	240	6
TAP	41	240	7
TAP	42	48	5
TAP	42	144	4
TAP	42	240	5
TAP	43	48	4
TAP	43	144	4
TAP	43	240	4
TAP	44	48	3
TAP	44	144	3
TAP	44	240	3
TAP	45	48	2
TAP	45	48	3
TAP	45	240	2
TAP	45	240	3
TAP	46	48	0
TAP	46	48	1
BRK	46	240	0
BRK	46	240	1
TAP	47	48	7
TAP	47	144	7
TAP	47	240	7
TAP	48	48	0
TAP	48	144	0
TAP	48	240	0
TAP	49	48	0
TAP	49	48	1
TAP	49	240	0
TAP	49	240	1
TAP	50	48	2
TAP	50	144	3
TAP	50	240	2
TAP	51	48	3
TAP	51	144	3
TAP	51	240	3
TAP	52	48	4
TAP	52	144	4
TAP	52	240	4
HLD	53	48	5	192
BRK	54	48	6
BRK	54	48	7
STR	55	48	0
SI_	55	48	0	96	288	4
STR	57	48	7
SI_	57	48	7	96	288	3
TAP	59	48	0
TAP	59	144	0
TAP	59	240	0
TAP	60	48	1
TAP	60	144	1
TAP	60	240	1
TAP	61	48	2
TAP	61	144	2
TAP	61	240	2
TAP	62	48	3
TAP	62	144	3
TAP	62	240	3
TAP	63	48	3
TAP	63	48	4
TAP	64	48	3
TAP	64	48	4
TAP	65	48	4
TAP	65	48	5
TAP	66	48	4
TAP	66	48	5
TAP	67	48	2
TAP	67	48	3
TAP	68	48	2
TAP	68	48	3
TAP	69	48	1
TAP	69	240	1
HLD	70	48	0	192
HLD	70	48	7	192
TAP	71	240	0
TAP	71	336	0
TAP	72	48	0
TAP	72	240	1
TAP	72	336	1
TAP	73	48	1
TAP	73	240	2
TAP	73	336	2
TAP	74	48	2
TAP	74	240	3
TAP	74	336	4
TAP	75	48	3
HLD	75	240	5	192
HLD	76	240	6	192
TAP	77	240	7
TAP	77	336	7
TAP	78	48	7
TAP	78	240	0
TAP	78	336	7
TAP	79	48	0
TAP	79	240	7
TAP	79	336	7
TAP	80	48	7
TAP	80	240	6
TAP	80	336	6
TAP	81	48	6
TAP	81	240	5
TAP	81	336	5
TAP	82	48	5
TAP	82	240	3
TAP	82	336	4
TAP	83	48	3
HLD	83	240	2	192
HLD	84	240	1	192
HLD	85	240	0	192
HLD	85	240	7	192
TAP	86	240	0
TAP	86	240	1
TAP	87	48	1
TAP	87	240	6
TAP	87	240	7
TAP	88	48	6
STR	88	240	0
SI_	88	240	0	96	288	4
STR	90	240	7
SI_	90	240	7	96	288	3
TAP	92	240	0
TAP	93	48	0
TAP	93	240	1
TAP	94	48	1
TAP	94	240	2
TAP	95	48	2
TAP	95	240	3
TAP	96	48	3
TAP	96	48	4
HLD	96	240	3	576
HLD	96	240	4	576
TAP	98	192	3
TAP	98	192	4

T_REC_TAP	156
T_REC_BRK	8
T_REC_XTP	0
T_REC_HLD	17
T_REC_XHO	0
T_REC_STR	7
T_REC_BST	0
T_REC_XST	0
T_REC_TTP	0
T_REC_THO	0
T_REC_SLD	7
T_REC_ALL	195
T_NUM_TAP	163
T_NUM_BRK	8
T_NUM_HLD	17
T_NUM_SLD	7
T_NUM_ALL	195
T_JUDGE_TAP	171
T_JUDGE_HLD	92
T_JUDGE_SLD	7
T_JUDGE_ALL	270
TTM_EACHPAIRS	28
TTM_SCR_TAP	81500
TTM_SCR_BRK	20800
TTM_SCR_HLD	17000
TTM_SCR_SLD	10500
TTM_SCR_ALL	129800
TTM_SCR_S	125150
TTM_SCR_SS	129000
TTM_RAT_ACV	10062

