VERSION	0.00.00	1.03.00
FES_MODE	0
BPM_DEF	200.000	200.000	200.000	200.000
MET_DEF	4	4
RESOLUTION	384
CLK_DEF	384
COMPATIBLE_CODE	MA2

BPM	0	0	200.000
MET	1	312	4	4
MET	85	0	4	6
MET	106	0	4	4

TAP	1	0	3
TAP	1	96	3
TAP	1	168	4
TAP	1	192	3
TAP	1	240	3
TAP	2	0	3
TAP	2	96	3
TAP	2	192	3
TAP	3	0	4
TAP	3	96	4
TAP	3	168	3
TAP	3	192	4
TAP	3	240	4
TAP	3	336	4
TAP	4	0	4
TAP	4	96	4
BST	4	192	4
SF_	4	192	4	96	48	0
TAP	4	204	3
TAP	4	216	2
TAP	4	228	1
TAP	4	240	0
TAP	4	252	7
TAP	4	264	6
TAP	4	276	5
BRK	4	288	4
TAP	5	0	5
TAP	5	48	4
TAP	5	48	5
TAP	5	96	2
TAP	5	144	2
TAP	5	144	3
TAP	5	192	1
TAP	5	240	0
TAP	5	240	1
STR	5	288	6
SCL	5	288	6	96	48	3
BST	6	0	7
SCR	6	0	7	96	48	2
BST	6	96	6
SI_	6	96	6	96	48	3
BST	6	192	7
SI_	6	192	7	96	48	2
BRK	6	288	6
TAP	7	0	5
TAP	7	48	4
TAP	7	48	5
TAP	7	96	2
TAP	7	144	2
TAP	7	144	3
TAP	7	192	1
TAP	7	240	0
TAP	7	240	1
TAP	7	288	6
BST	8	0	5
SV_	8	0	5	96	48	2
BST	8	96	5
SCL	8	96	5	96	96	2
SCR	8	96	5	96	96	2
TAP	9	0	6
TAP	9	48	6
TAP	9	48	7
TAP	9	96	1
TAP	9	144	0
TAP	9	144	1
TAP	9	192	2
TAP	9	240	2
TAP	9	240	3
STR	9	288	5
SCR	9	288	5	96	48	0
BST	10	0	4
SCL	10	0	4	96	48	1
BST	10	96	5
SI_	10	96	5	96	48	0
BST	10	192	4
SI_	10	192	4	96	48	1
BRK	10	288	5
TAP	11	0	6
TAP	11	48	6
TAP	11	48	7
TAP	11	96	1
TAP	11	144	0
TAP	11	144	1
TAP	11	192	2
TAP	11	240	2
TAP	11	240	3
TAP	11	288	5
BST	12	0	4
SI_	12	0	4	96	48	2
BST	12	0	7
SI_	12	0	7	96	48	1
BRK	12	48	4
BRK	12	48	7
BST	12	192	7
SF_	12	192	7	96	48	3
BRK	12	240	7
TAP	13	0	5
TAP	13	48	3
STR	13	96	3
SV_	13	96	3	96	96	1
STR	13	96	5
SV_	13	96	5	96	96	7
TAP	14	0	6
TAP	14	48	7
STR	14	96	6
SUR	14	96	6	96	96	3
STR	14	96	7
SUL	14	96	7	96	96	2
BST	15	0	6
SI_	15	0	6	96	48	3
BST	15	96	7
SI_	15	96	7	96	48	2
BRK	15	144	7
BST	15	192	6
SI_	15	192	6	96	48	2
BRK	15	240	6
BRK	15	288	0
BRK	15	336	0
TAP	16	0	1
TAP	16	48	6
TAP	16	96	1
TAP	16	96	6
TAP	16	192	7
TAP	16	240	0
TAP	16	288	0
TAP	16	288	7
TAP	17	0	3
TAP	17	48	5
STR	17	96	3
SV_	17	96	3	96	96	0
STR	17	96	5
SV_	17	96	5	96	96	0
TAP	18	0	7
TAP	18	48	6
STR	18	96	6
SXR	18	96	6	96	96	2
STR	18	96	7
SXL	18	96	7	96	96	3
BST	19	0	5
SI_	19	0	5	96	48	0
BST	19	96	4
SI_	19	96	4	96	48	1
BRK	19	144	4
BST	19	192	5
SI_	19	192	5	96	48	1
BRK	19	240	5
BRK	19	288	3
BRK	19	336	3
TAP	20	0	7
BRK	20	64	1
BRK	20	64	6
BRK	20	128	1
BRK	20	128	6
TAP	20	192	0
BRK	20	256	1
BRK	20	256	6
BRK	20	320	1
BRK	20	320	6
TAP	21	0	0
TAP	21	0	6
TAP	21	48	7
STR	21	96	0
SV_	21	96	0	96	96	2
STR	21	96	6
SV_	21	96	6	96	96	4
TAP	22	0	4
TAP	22	0	5
TAP	22	48	3
STR	22	96	4
SXR	22	96	4	96	96	1
STR	22	96	5
SXL	22	96	5	96	96	0
BST	23	0	5
SI_	23	0	5	96	48	0
BST	23	96	1
SV_	23	96	1	96	48	3
BRK	23	144	1
BST	23	192	6
SI_	23	192	6	96	48	1
BRK	23	240	6
BRK	23	288	2
BRK	23	336	2
TAP	24	0	7
TAP	24	48	0
TAP	24	96	0
TAP	24	96	7
TAP	24	192	1
TAP	24	240	6
TAP	24	288	1
TAP	24	288	6
TAP	25	0	0
TAP	25	0	6
TAP	25	48	7
STR	25	96	0
SV_	25	96	0	96	96	3
STR	25	96	6
SV_	25	96	6	96	96	3
TAP	26	0	4
TAP	26	0	5
TAP	26	48	3
STR	26	96	4
SUL	26	96	4	96	96	0
STR	26	96	5
SUR	26	96	5	96	96	1
BST	27	0	5
SI_	27	0	5	96	48	2
BST	27	96	1
SV_	27	96	1	96	48	7
BRK	27	144	1
BST	27	192	4
SI_	27	192	4	96	48	1
BRK	27	240	4
BRK	27	288	2
BRK	27	336	2
BST	28	0	7
SF_	28	0	7	96	48	3
BST	28	192	6
SF_	28	192	6	96	48	2
TAP	29	0	7
TAP	29	96	0
TAP	29	96	7
TAP	29	168	0
TAP	29	192	7
TAP	29	240	7
TAP	29	288	0
TAP	29	288	7
TAP	29	336	6
TAP	30	0	0
TAP	30	0	7
TAP	30	96	1
TAP	30	96	6
TAP	30	192	0
STR	30	192	7
SF_	30	192	7	96	48	3
BRK	30	288	7
TAP	31	0	5
TAP	31	48	4
TAP	31	48	5
TAP	31	96	2
TAP	31	144	2
TAP	31	144	3
TAP	31	192	1
TAP	31	240	0
TAP	31	240	1
STR	31	288	6
SCL	31	288	6	96	48	3
BST	32	0	7
SCR	32	0	7	96	48	2
BST	32	96	6
SI_	32	96	6	96	48	3
BST	32	192	7
SI_	32	192	7	96	48	2
BRK	32	288	6
TAP	33	0	5
TAP	33	48	4
TAP	33	48	5
TAP	33	96	2
TAP	33	144	2
TAP	33	144	3
TAP	33	192	1
TAP	33	240	0
TAP	33	240	1
TAP	33	288	6
BST	34	0	6
SV_	34	0	6	96	48	3
BST	34	96	6
SCL	34	96	6	96	96	3
SCR	34	96	6	96	96	3
TAP	35	0	6
TAP	35	48	6
TAP	35	48	7
TAP	35	96	1
TAP	35	144	0
TAP	35	144	1
TAP	35	192	2
TAP	35	240	2
TAP	35	240	3
STR	35	288	5
SCR	35	288	5	96	48	0
BST	36	0	4
SCL	36	0	4	96	48	1
BST	36	96	5
SI_	36	96	5	96	48	0
BST	36	192	4
SI_	36	192	4	96	48	1
BRK	36	288	5
TAP	37	0	6
TAP	37	48	6
TAP	37	48	7
TAP	37	96	1
TAP	37	144	0
TAP	37	144	1
TAP	37	192	2
TAP	37	240	2
TAP	37	240	3
TAP	37	288	5
BST	38	0	5
SI_	38	0	5	96	48	2
BST	38	0	6
SI_	38	0	6	96	48	2
BRK	38	48	5
BRK	38	48	6
BRK	38	192	1
BRK	38	192	6
HLD	39	0	7	96
TAP	39	48	2
HLD	39	96	0	96
TAP	39	144	5
BST	39	192	6
SI_	39	192	6	96	48	1
HLD	40	0	0	96
TAP	40	48	5
HLD	40	96	7	96
TAP	40	144	2
BST	40	192	4
SUR	40	192	4	96	48	1
HLD	41	0	7	96
TAP	41	48	2
HLD	41	96	0	96
TAP	41	144	2
BST	41	192	6
SI_	41	192	6	96	48	1
HLD	42	0	0	96
TAP	42	48	5
HLD	42	96	7	96
TAP	42	144	5
BST	42	192	4
SUR	42	192	4	96	48	1
HLD	43	0	7	96
TAP	43	48	5
HLD	43	96	0	96
TAP	43	144	5
BST	43	192	6
SI_	43	192	6	96	48	1
HLD	44	0	0	96
TAP	44	48	2
HLD	44	96	7	96
TAP	44	144	2
BST	44	192	4
SUR	44	192	4	96	48	1
HLD	45	0	7	96
TAP	45	48	5
HLD	45	96	0	96
TAP	45	144	2
HLD	45	192	7	96
TAP	45	240	5
HLD	45	288	0	96
TAP	45	336	2
HLD	46	0	7	96
TAP	46	48	5
TAP	46	96	0
TAP	46	144	2
BST	46	192	5
SI_	46	192	5	96	48	2
BST	46	192	6
SI_	46	192	6	96	48	1
TAP	47	0	6
TAP	47	0	7
STR	47	96	0
SLL	47	96	0	96	96	4
STR	47	96	1
SV_	47	96	1	96	96	3
TAP	47	144	0
TAP	47	144	1
TAP	47	192	0
TAP	47	192	1
TAP	48	0	0
TAP	48	0	1
STR	48	96	6
SV_	48	96	6	96	48	1
STR	48	96	7
SV_	48	96	7	96	48	1
TAP	48	144	6
TAP	48	144	7
TAP	48	192	6
TAP	48	192	7
STR	49	0	0
SI_	49	0	0	96	48	2
TAP	49	0	1
TAP	49	96	0
STR	49	96	7
SI_	49	96	7	96	48	3
TAP	49	192	6
TAP	49	192	7
TAP	50	0	6
TAP	50	0	7
STR	50	96	0
SUL	50	96	0	96	96	3
STR	50	96	1
SUL	50	96	1	96	96	2
TAP	50	144	0
TAP	50	144	1
TAP	50	192	0
TAP	50	192	1
TAP	51	0	0
TAP	51	0	1
STR	51	96	6
SI_	51	96	6	96	48	2
STR	51	96	7
SV_	51	96	7	96	48	2
TAP	51	144	6
TAP	51	144	7
TAP	51	192	6
TAP	51	192	7
TAP	52	0	6
TAP	52	0	7
STR	52	96	0
SCL	52	96	0	96	96	3
STR	52	96	1
SUL	52	96	1	96	96	2
TAP	52	144	0
TAP	52	144	1
TAP	52	192	0
TAP	52	192	1
TAP	53	0	0
TAP	53	0	1
STR	53	96	6
SI_	53	96	6	96	48	2
STR	53	96	7
SV_	53	96	7	96	48	2
TAP	53	144	6
TAP	53	144	7
TAP	53	192	6
TAP	53	192	7
STR	54	0	4
SI_	54	0	4	96	48	1
STR	54	0	5
SI_	54	0	5	96	48	0
TAP	54	96	4
TAP	54	96	5
BRK	54	192	6
BRK	54	192	7
BRK	54	240	6
BRK	54	240	7
BRK	54	288	0
BRK	54	288	1
BRK	54	336	0
BRK	54	336	1
BRK	55	0	6
BRK	55	0	7
TAP	55	48	6
TAP	55	96	1
TAP	55	144	0
STR	55	192	6
SI_	55	192	6	96	48	3
STR	55	192	7
SI_	55	192	7	96	48	2
BRK	55	288	6
BRK	55	288	7
BRK	56	0	0
BRK	56	0	1
TAP	56	48	1
TAP	56	96	6
TAP	56	144	7
STR	56	192	0
SUL	56	192	0	96	48	3
STR	56	192	1
SUL	56	192	1	96	48	3
BRK	56	288	0
BRK	56	288	1
BRK	57	0	4
BRK	57	0	5
TAP	57	48	5
TAP	57	96	2
TAP	57	144	3
BRK	57	192	2
BRK	57	192	3
TAP	57	240	2
TAP	57	288	5
TAP	57	336	4
BRK	58	0	6
BRK	58	0	7
TAP	58	48	6
TAP	58	96	1
TAP	58	144	0
STR	58	192	6
SI_	58	192	6	96	48	3
STR	58	192	7
SI_	58	192	7	96	48	2
BRK	58	288	6
BRK	58	288	7
BRK	59	0	4
BRK	59	0	5
TAP	59	48	5
TAP	59	96	2
TAP	59	144	3
STR	59	192	4
SI_	59	192	4	96	48	1
STR	59	192	5
SI_	59	192	5	96	48	0
BRK	59	288	4
BRK	59	288	5
BRK	60	0	2
BRK	60	0	3
TAP	60	48	2
TAP	60	96	5
TAP	60	144	4
STR	60	192	2
SUR	60	192	2	96	48	0
STR	60	192	3
SUR	60	192	3	96	48	0
BRK	60	288	2
BRK	60	288	3
BRK	61	0	6
BRK	61	0	7
TAP	61	48	6
TAP	61	96	7
TAP	61	144	6
BRK	61	192	0
BRK	61	192	7
TAP	61	240	0
TAP	61	288	7
TAP	61	336	0
BRK	62	0	0
BRK	62	0	1
TAP	62	48	0
TAP	62	96	1
TAP	62	144	0
STR	62	192	6
SI_	62	192	6	96	48	3
STR	62	192	7
SI_	62	192	7	96	48	2
BRK	62	288	6
BRK	62	288	7
TAP	63	0	0
BST	63	0	4
SCR	63	0	4	96	48	7
TAP	63	96	0
TAP	63	96	4
STR	63	192	0
SCL	63	192	0	96	48	5
TAP	63	192	4
TAP	63	288	0
TAP	63	288	4
TAP	64	0	0
STR	64	0	4
SCR	64	0	4	96	48	7
TAP	64	96	0
TAP	64	96	4
STR	64	192	0
SCL	64	192	0	96	48	5
TAP	64	192	4
TAP	64	288	0
TAP	64	288	4
TAP	65	0	3
BST	65	0	7
SCR	65	0	7	96	48	2
TAP	65	96	3
TAP	65	96	7
STR	65	192	3
SCL	65	192	3	96	48	0
TAP	65	192	7
TAP	65	288	3
TAP	65	288	7
TAP	66	0	3
STR	66	0	7
SCR	66	0	7	96	48	2
TAP	66	96	3
TAP	66	96	7
BRK	66	192	3
BRK	66	192	7
BST	67	0	6
SI_	67	0	6	96	48	4
STR	67	48	7
SI_	67	48	7	96	48	3
TAP	67	96	6
TAP	67	144	7
STR	67	192	5
SI_	67	192	5	96	48	0
STR	67	240	4
SI_	67	240	4	96	48	1
TAP	67	288	5
TAP	67	336	4
STR	68	0	7
SI_	68	0	7	96	48	3
STR	68	48	0
SI_	68	48	0	96	48	2
TAP	68	96	7
TAP	68	144	0
TAP	68	192	4
TAP	68	240	3
TAP	68	336	3
BST	69	0	5
SI_	69	0	5	96	48	7
STR	69	48	4
SI_	69	48	4	96	48	0
TAP	69	96	5
TAP	69	144	4
STR	69	192	6
SI_	69	192	6	96	48	3
STR	69	240	7
SI_	69	240	7	96	48	2
TAP	69	288	6
TAP	69	336	7
STR	70	0	4
SI_	70	0	4	96	48	0
STR	70	48	3
SI_	70	48	3	96	48	1
TAP	70	96	4
TAP	70	144	3
BRK	70	192	7
BRK	70	240	7
TAP	71	0	3
BST	71	0	7
SCL	71	0	7	96	48	4
TAP	71	96	3
TAP	71	96	7
STR	71	192	3
SCR	71	192	3	96	48	6
TAP	71	192	7
TAP	71	288	3
TAP	71	288	7
TAP	72	0	3
STR	72	0	7
SCL	72	0	7	96	48	4
TAP	72	96	3
TAP	72	96	7
STR	72	192	3
SCR	72	192	3	96	48	6
TAP	72	192	7
TAP	72	288	3
TAP	72	288	7
BRK	73	0	7
TAP	73	48	0
TAP	73	96	7
TAP	73	144	0
TAP	73	192	1
TAP	73	192	6
TAP	73	288	1
TAP	73	288	6
TAP	74	0	0
TAP	74	0	6
TAP	74	96	0
TAP	74	96	6
BRK	74	192	6
TAP	74	204	7
TAP	74	216	0
TAP	74	228	1
TAP	74	240	2
TAP	74	252	3
TAP	74	264	4
TAP	74	276	5
BRK	74	288	0
BRK	74	336	0
BST	75	0	5
SI_	75	0	5	96	48	7
STR	75	48	4
SI_	75	48	4	96	48	0
TAP	75	96	5
TAP	75	144	4
STR	75	192	6
SI_	75	192	6	96	48	3
STR	75	240	7
SI_	75	240	7	96	48	2
TAP	75	288	6
TAP	75	336	7
STR	76	0	4
SI_	76	0	4	96	48	0
STR	76	48	3
SI_	76	48	3	96	48	1
TAP	76	96	4
TAP	76	144	3
TAP	76	192	7
TAP	76	240	0
TAP	76	336	0
BST	77	0	6
SI_	77	0	6	96	48	4
STR	77	48	7
SI_	77	48	7	96	48	3
TAP	77	96	6
TAP	77	144	7
STR	77	192	5
SI_	77	192	5	96	48	0
STR	77	240	4
SI_	77	240	4	96	48	1
TAP	77	288	5
TAP	77	336	4
STR	78	0	7
SI_	78	0	7	96	48	3
STR	78	48	0
SI_	78	48	0	96	48	2
TAP	78	96	7
TAP	78	144	0
TAP	78	192	6
TAP	78	240	1
TAP	78	288	7
TAP	78	336	0
BRK	79	0	6
BRK	79	0	7
TAP	79	48	6
TAP	79	48	7
TAP	79	96	6
TAP	79	96	7
TAP	79	144	6
TAP	79	144	7
BRK	79	192	0
BRK	79	192	7
TAP	79	240	0
TAP	79	240	7
TAP	79	288	0
TAP	79	288	7
TAP	79	336	0
TAP	79	336	7
BRK	80	0	0
BRK	80	0	1
TAP	80	48	0
TAP	80	48	1
TAP	80	96	0
TAP	80	96	1
TAP	80	144	0
TAP	80	144	1
BRK	80	192	0
BRK	80	192	7
TAP	80	240	0
TAP	80	240	7
TAP	80	288	0
TAP	80	288	7
TAP	80	336	0
TAP	80	336	7
BRK	81	0	6
TAP	81	48	6
BRK	81	96	1
TAP	81	128	1
TAP	81	160	1
BRK	81	192	6
TAP	81	224	6
TAP	81	256	6
BRK	81	288	0
TAP	81	312	1
TAP	81	336	2
TAP	81	360	3
BRK	82	0	7
TAP	82	12	0
TAP	82	24	1
TAP	82	36	2
TAP	82	48	3
TAP	82	60	4
TAP	82	72	5
TAP	82	84	6
TAP	82	96	7
TAP	82	108	0
TAP	82	120	1
TAP	82	132	2
TAP	82	144	3
TAP	82	156	4
TAP	82	168	5
TAP	82	180	6
BRK	82	192	3
BST	82	192	7
SF_	82	192	7	96	288	3
BRK	84	192	3
BRK	84	192	4
HLD	85	0	5	576
TAP	85	96	6
TAP	85	144	6
TAP	85	240	4
TAP	85	288	4
TAP	86	0	6
TAP	86	48	6
TAP	86	144	4
HLD	86	192	2	576
TAP	86	288	1
TAP	86	336	1
TAP	87	48	3
TAP	87	96	3
TAP	87	192	1
TAP	87	240	1
TAP	87	336	3
HLD	88	0	6	576
TAP	88	96	5
TAP	88	144	5
TAP	88	240	7
TAP	88	288	7
TAP	89	0	5
TAP	89	48	5
TAP	89	144	7
HLD	89	192	1	576
TAP	89	288	2
TAP	89	336	2
TAP	90	48	0
TAP	90	96	0
TAP	90	192	2
TAP	90	240	2
TAP	90	336	0
STR	91	0	6
SUL	91	0	6	96	1056	1
TAP	91	96	7
TAP	91	144	7
TAP	91	240	5
TAP	91	288	5
TAP	92	0	7
TAP	92	48	7
TAP	92	144	5
TAP	92	192	5
TAP	92	288	0
TAP	92	336	0
TAP	93	48	2
TAP	93	96	2
TAP	93	192	0
TAP	93	240	0
TAP	93	336	2
STR	94	0	4
SUR	94	0	4	96	1056	1
TAP	94	96	3
TAP	94	144	3
TAP	94	240	5
TAP	94	288	5
TAP	95	0	3
TAP	95	48	3
TAP	95	144	5
TAP	95	192	5
TAP	95	288	2
TAP	95	336	2
TAP	96	48	6
TAP	96	96	6
TAP	96	192	2
TAP	96	240	2
TAP	96	336	7
STR	97	0	7
SF_	97	0	7	96	72	3
STR	97	288	4
SF_	97	288	4	96	72	0
STR	98	192	6
SI_	98	192	6	96	72	1
STR	98	336	5
SI_	98	336	5	96	72	1
STR	99	96	4
SI_	99	96	4	96	72	1
BRK	99	240	6
STR	100	0	6
SF_	100	0	6	96	72	2
STR	100	288	5
SF_	100	288	5	96	72	1
TAP	101	192	0
TAP	101	192	1
TAP	101	240	0
TAP	101	240	7
TAP	101	288	6
TAP	101	288	7
TAP	101	336	0
TAP	101	336	7
TAP	102	48	6
TAP	102	48	7
STR	102	96	5
SI_	102	96	5	96	72	2
STR	102	96	6
SI_	102	96	6	96	72	1
STR	103	0	7
SI_	103	0	7	96	72	1
STR	103	144	6
SI_	103	144	6	96	72	1
STR	103	288	5
SI_	103	288	5	96	72	1
STR	104	48	4
SI_	104	48	4	96	72	1
BRK	104	192	6
BRK	104	288	0
BRK	104	288	7
BRK	104	336	0
BRK	104	336	1
BRK	105	0	0
BRK	105	0	7
BST	105	96	7
SF_	105	96	7	96	48	3
BRK	105	192	7
BST	105	288	0
SV_	105	288	0	96	96	5
SV_	105	288	0	96	384	3
BST	107	192	4
SF_	107	192	4	96	48	0
BRK	107	288	4
TAP	108	0	5
TAP	108	48	4
TAP	108	48	6
TAP	108	96	2
TAP	108	144	1
TAP	108	144	3
TAP	108	192	0
TAP	108	240	1
TAP	108	240	7
STR	108	288	6
SCL	108	288	6	96	48	3
TAP	109	0	6
BST	109	0	7
SCR	109	0	7	96	48	2
BST	109	96	6
SI_	109	96	6	96	48	3
TAP	109	96	7
TAP	109	192	6
BST	109	192	7
SI_	109	192	7	96	48	2
BRK	109	288	6
TAP	109	288	7
TAP	110	0	5
TAP	110	48	4
TAP	110	48	6
TAP	110	96	2
TAP	110	144	1
TAP	110	144	3
TAP	110	192	0
TAP	110	240	1
TAP	110	240	7
TAP	110	288	6
BST	111	0	7
SV_	111	0	7	96	48	4
BST	111	96	7
SCL	111	96	7	96	96	4
SCR	111	96	7	96	96	4
TAP	112	0	6
TAP	112	48	5
TAP	112	48	7
TAP	112	96	1
TAP	112	144	0
TAP	112	144	2
TAP	112	192	3
TAP	112	240	2
TAP	112	240	4
STR	112	288	5
SCR	112	288	5	96	48	0
BST	113	0	4
SCL	113	0	4	96	48	1
TAP	113	0	5
TAP	113	96	4
BST	113	96	5
SI_	113	96	5	96	48	0
BST	113	192	4
SI_	113	192	4	96	48	1
TAP	113	192	5
TAP	113	288	4
BRK	113	288	5
TAP	114	0	6
TAP	114	48	5
TAP	114	48	7
TAP	114	96	1
TAP	114	144	0
TAP	114	144	2
TAP	114	192	3
TAP	114	240	2
TAP	114	240	4
TAP	114	288	5
BST	115	0	5
SI_	115	0	5	96	48	2
BST	115	0	7
SI_	115	0	7	96	48	2
BRK	115	48	5
BRK	115	48	7
BRK	115	192	1
BRK	115	192	6
BST	116	0	7
SI_	116	0	7	96	48	1
SCR	116	0	7	96	48	1
BRK	116	96	7
BST	116	192	7
SI_	116	192	7	96	48	2
SCR	116	192	7	96	48	2
BRK	116	288	7
BST	117	0	7
SI_	117	0	7	96	48	3
SCR	117	0	7	96	48	3
BRK	117	96	7
BST	117	192	7
SI_	117	192	7	96	48	4
SCR	117	192	7	96	48	4
BRK	117	288	7
BST	118	0	6
SCL	118	0	6	96	48	3
BST	118	48	7
SCR	118	48	7	96	48	2
BRK	118	96	6
BRK	118	144	7
BST	118	192	6
SI_	118	192	6	96	48	3
BST	118	240	7
SI_	118	240	7	96	48	2
BRK	118	288	6
BRK	118	336	7
BRK	119	0	6
TAP	119	128	0
TAP	119	128	1
TAP	119	192	0
TAP	119	192	7
TAP	119	256	6
TAP	119	256	7
TAP	119	320	5
TAP	119	320	6
BST	120	0	6
SF_	120	0	6	96	288	2

T_REC_TAP	496
T_REC_BRK	126
T_REC_XTP	0
T_REC_HLD	21
T_REC_XHO	0
T_REC_STR	94
T_REC_BST	74
T_REC_XST	0
T_REC_TTP	0
T_REC_THO	0
T_REC_SLD	176
T_REC_ALL	987
T_NUM_TAP	590
T_NUM_BRK	200
T_NUM_HLD	21
T_NUM_SLD	176
T_NUM_ALL	987
T_JUDGE_TAP	790
T_JUDGE_HLD	82
T_JUDGE_SLD	176
T_JUDGE_ALL	1048
TTM_EACHPAIRS	191
TTM_SCR_TAP	295000
TTM_SCR_BRK	520000
TTM_SCR_HLD	21000
TTM_SCR_SLD	264000
TTM_SCR_ALL	1100000
TTM_SCR_S	1047600
TTM_SCR_SS	1080000
TTM_RAT_ACV	10185

