VERSION	0.00.00	1.03.00
FES_MODE	0
BPM_DEF	200.000	200.000	200.000	200.000
MET_DEF	4	4
RESOLUTION	384
CLK_DEF	384
COMPATIBLE_CODE	MA2

BPM	0	0	200.000
MET	0	0	4	4
MET	85	0	4	6
MET	106	0	4	4

TAP	1	0	4
TAP	1	96	4
TAP	1	192	3
TAP	1	288	3
TAP	2	0	3
TAP	2	0	4
TAP	2	96	2
TAP	2	96	5
TAP	2	192	2
TAP	2	192	5
TAP	3	0	4
TAP	3	96	4
TAP	3	192	3
TAP	3	288	3
TAP	4	0	3
TAP	4	0	4
TAP	4	96	2
TAP	4	96	5
BRK	4	192	1
BRK	4	192	6
TAP	5	0	4
TAP	5	0	5
TAP	5	96	1
TAP	5	96	5
TAP	5	192	4
TAP	5	192	5
TAP	5	288	1
TAP	5	288	5
TAP	6	0	2
STR	6	0	3
SI_	6	0	3	96	48	6
TAP	6	96	1
STR	6	192	2
SI_	6	192	2	96	48	7
TAP	6	192	4
TAP	6	288	5
TAP	7	0	2
TAP	7	0	3
TAP	7	96	2
TAP	7	96	6
TAP	7	192	2
TAP	7	192	3
TAP	7	288	2
TAP	7	288	6
STR	8	0	4
SI_	8	0	4	96	48	1
TAP	8	0	5
TAP	8	96	6
TAP	8	192	3
STR	8	192	5
SI_	8	192	5	96	48	0
TAP	8	288	2
TAP	9	0	2
TAP	9	0	3
TAP	9	96	2
TAP	9	96	6
TAP	9	192	2
TAP	9	192	3
TAP	9	288	2
TAP	9	288	6
STR	10	0	4
SI_	10	0	4	96	48	1
TAP	10	0	5
TAP	10	96	6
TAP	10	192	3
STR	10	192	5
SI_	10	192	5	96	48	0
TAP	10	288	2
TAP	11	0	4
TAP	11	0	5
TAP	11	96	1
TAP	11	96	5
TAP	11	192	4
TAP	11	192	5
TAP	11	288	1
TAP	11	288	5
BRK	12	0	3
BRK	12	0	4
BRK	12	48	3
BRK	12	48	4
BRK	12	192	1
BRK	12	192	6
BRK	12	240	1
BRK	12	240	6
TAP	13	0	4
STR	13	0	5
SI_	13	0	5	96	48	0
STR	13	96	4
SI_	13	96	4	96	48	1
TAP	13	192	6
TAP	13	240	6
TAP	13	288	6
TAP	13	288	7
TAP	14	0	4
STR	14	0	5
SI_	14	0	5	96	48	0
STR	14	96	4
SI_	14	96	4	96	48	1
TAP	14	192	6
TAP	14	240	6
TAP	14	288	6
TAP	14	288	7
HLD	15	0	2	48
HLD	15	0	5	48
HLD	15	96	1	48
HLD	15	96	3	48
HLD	15	192	3	48
HLD	15	192	6	48
HLD	15	288	0	48
HLD	15	288	4	48
TAP	16	0	3
TAP	16	0	6
TAP	16	96	4
TAP	16	96	5
STR	16	144	4
SV_	16	144	4	96	96	1
STR	16	144	5
SCR	16	144	5	96	96	1
STR	17	0	2
SI_	17	0	2	96	48	7
TAP	17	0	3
STR	17	96	3
SI_	17	96	3	96	48	6
TAP	17	192	1
TAP	17	240	1
TAP	17	288	0
TAP	17	288	1
STR	18	0	2
SI_	18	0	2	96	48	7
TAP	18	0	3
STR	18	96	3
SI_	18	96	3	96	48	6
TAP	18	192	1
TAP	18	240	1
TAP	18	288	0
TAP	18	288	1
HLD	19	0	2	48
HLD	19	0	5	48
HLD	19	96	1	48
HLD	19	96	3	48
HLD	19	192	3	48
HLD	19	192	6	48
HLD	19	288	0	48
HLD	19	288	4	48
TAP	20	0	2
TAP	20	64	2
TAP	20	64	3
TAP	20	128	1
TAP	20	128	3
TAP	20	192	5
TAP	20	256	4
TAP	20	256	5
TAP	20	320	4
TAP	20	320	6
STR	21	0	2
SCL	21	0	2	96	48	7
TAP	21	0	3
STR	21	96	3
SCR	21	96	3	96	48	6
TAP	21	192	1
TAP	21	240	1
TAP	21	288	0
TAP	21	288	1
STR	22	0	2
SCL	22	0	2	96	48	7
TAP	22	0	3
STR	22	96	3
SCR	22	96	3	96	48	6
TAP	22	192	1
TAP	22	240	1
TAP	22	288	0
TAP	22	288	1
HLD	23	0	2	48
HLD	23	0	5	48
HLD	23	96	4	48
HLD	23	96	6	48
HLD	23	192	1	48
HLD	23	192	4	48
HLD	23	288	3	48
HLD	23	288	7	48
TAP	24	0	1
TAP	24	0	4
TAP	24	96	2
TAP	24	96	3
STR	24	144	2
SCL	24	144	2	96	96	6
STR	24	144	3
SV_	24	144	3	96	96	6
TAP	25	0	4
STR	25	0	5
SCR	25	0	5	96	48	0
STR	25	96	4
SCL	25	96	4	96	48	1
TAP	25	192	6
TAP	25	240	6
TAP	25	288	6
TAP	25	288	7
TAP	26	0	4
STR	26	0	5
SCR	26	0	5	96	48	0
STR	26	96	4
SCL	26	96	4	96	48	1
TAP	26	192	6
TAP	26	240	6
TAP	26	288	6
TAP	26	288	7
HLD	27	0	2	48
HLD	27	0	5	48
HLD	27	96	1	48
HLD	27	96	3	48
HLD	27	192	3	48
HLD	27	192	6	48
STR	27	288	0
SCR	27	288	0	96	48	3
STR	27	288	7
SCL	27	288	7	96	48	4
STR	28	96	0
SUR	28	96	0	96	48	4
STR	28	96	7
SUL	28	96	7	96	48	3
TAP	28	288	0
TAP	28	288	7
TAP	29	0	3
HLD	29	0	4	288
TAP	29	96	3
TAP	29	192	3
TAP	29	240	3
TAP	29	288	3
STR	30	0	3
SI_	30	0	3	96	48	0
STR	30	0	4
SI_	30	0	4	96	48	7
TAP	30	192	3
TAP	30	192	4
TAP	30	288	1
TAP	30	288	6
STR	31	0	2
SI_	31	0	2	96	48	5
TAP	31	0	3
TAP	31	96	6
STR	31	192	2
SI_	31	192	2	96	48	5
TAP	31	192	3
TAP	31	288	6
STR	32	0	4
SI_	32	0	4	96	48	1
TAP	32	0	6
TAP	32	96	7
TAP	32	192	3
STR	32	192	5
SI_	32	192	5	96	48	0
TAP	32	288	2
TAP	33	0	4
STR	33	0	5
SI_	33	0	5	96	48	2
TAP	33	96	1
TAP	33	192	4
STR	33	192	5
SI_	33	192	5	96	48	2
TAP	33	288	1
TAP	34	0	1
STR	34	0	3
SI_	34	0	3	96	48	6
TAP	34	96	0
STR	34	192	2
SI_	34	192	2	96	48	7
TAP	34	192	4
TAP	34	288	5
TAP	35	0	4
STR	35	0	5
SI_	35	0	5	96	48	2
TAP	35	96	1
TAP	35	192	4
STR	35	192	5
SI_	35	192	5	96	48	2
TAP	35	288	1
TAP	36	0	1
STR	36	0	3
SI_	36	0	3	96	48	6
TAP	36	96	0
STR	36	192	2
SI_	36	192	2	96	48	7
TAP	36	192	4
TAP	36	288	5
STR	37	0	2
SI_	37	0	2	96	48	5
TAP	37	0	3
TAP	37	96	6
STR	37	192	2
SI_	37	192	2	96	48	5
TAP	37	192	3
TAP	37	288	6
TAP	38	0	0
TAP	38	0	7
TAP	38	48	0
TAP	38	48	7
BRK	38	192	1
BRK	38	192	6
TAP	39	0	0
TAP	39	0	3
STR	39	96	5
SI_	39	96	5	96	96	2
STR	39	96	6
SI_	39	96	6	96	96	1
TAP	40	0	0
TAP	40	0	3
STR	40	96	5
SI_	40	96	5	96	96	2
STR	40	96	6
SI_	40	96	6	96	96	1
TAP	41	0	1
TAP	41	0	4
STR	41	96	6
SI_	41	96	6	96	96	2
STR	41	96	7
SI_	41	96	7	96	96	1
TAP	42	0	2
TAP	42	0	7
STR	42	96	4
SI_	42	96	4	96	96	2
STR	42	96	5
SI_	42	96	5	96	96	1
TAP	43	0	0
TAP	43	0	3
STR	43	96	5
SUR	43	96	5	96	96	2
STR	43	96	6
SCR	43	96	6	96	96	1
TAP	44	0	1
TAP	44	0	4
STR	44	96	6
SUR	44	96	6	96	96	3
STR	44	96	7
SCR	44	96	7	96	96	2
TAP	45	0	2
TAP	45	0	7
STR	45	96	4
SUR	45	96	4	96	96	1
STR	45	96	5
SCR	45	96	5	96	96	0
STR	46	0	5
SXR	46	0	5	96	192	2
STR	46	0	6
SUR	46	0	6	96	192	1
TAP	47	0	1
HLD	47	0	3	48
HLD	47	96	3	48
TAP	47	96	5
TAP	47	192	1
HLD	47	192	3	48
TAP	47	288	2
TAP	47	288	4
HLD	48	0	4	48
TAP	48	0	6
TAP	48	96	2
HLD	48	96	4	48
HLD	48	192	4	48
TAP	48	192	6
TAP	48	288	3
TAP	48	288	5
HLD	49	0	1	48
TAP	49	0	3
TAP	49	96	3
HLD	49	96	5	48
HLD	49	192	1	48
TAP	49	192	3
TAP	49	288	0
TAP	49	288	1
TAP	50	0	4
HLD	50	0	6	48
HLD	50	96	2	48
TAP	50	96	4
TAP	50	192	4
HLD	50	192	6	48
TAP	50	288	6
TAP	50	288	7
HLD	51	0	1	48
TAP	51	0	3
TAP	51	96	3
HLD	51	96	5	48
TAP	51	192	1
HLD	51	192	3	48
TAP	51	288	2
TAP	51	288	4
TAP	52	0	4
HLD	52	0	6	48
HLD	52	96	2	48
TAP	52	96	4
HLD	52	192	4	48
TAP	52	192	6
TAP	52	288	3
TAP	52	288	5
TAP	53	0	1
HLD	53	0	3	48
TAP	53	96	3
HLD	53	96	5	48
HLD	53	192	1	48
TAP	53	192	3
TAP	53	288	0
TAP	53	288	1
HLD	54	0	4	48
TAP	54	0	6
HLD	54	96	2	48
TAP	54	96	4
TAP	54	192	4
HLD	54	192	6	48
TAP	54	288	6
TAP	54	288	7
HLD	55	0	1	144
HLD	55	0	5	144
STR	55	192	1
SI_	55	192	1	96	48	7
STR	55	192	5
SI_	55	192	5	96	48	3
HLD	56	0	2	144
HLD	56	0	6	144
STR	56	192	2
SI_	56	192	2	96	48	4
STR	56	192	6
SI_	56	192	6	96	48	0
HLD	57	0	1	48
HLD	57	0	5	48
TAP	57	96	1
TAP	57	96	5
HLD	57	192	2	48
HLD	57	192	6	48
TAP	57	288	2
TAP	57	288	6
HLD	58	0	1	48
HLD	58	0	5	48
TAP	58	96	1
TAP	58	96	5
STR	58	192	2
SI_	58	192	2	96	48	4
STR	58	192	6
SI_	58	192	6	96	48	0
HLD	59	0	1	144
HLD	59	0	5	144
STR	59	192	1
SI_	59	192	1	96	48	7
STR	59	192	5
SI_	59	192	5	96	48	3
HLD	60	0	2	144
HLD	60	0	6	144
STR	60	192	2
SI_	60	192	2	96	48	4
STR	60	192	6
SI_	60	192	6	96	48	0
TAP	61	0	1
TAP	61	0	5
TAP	61	48	1
TAP	61	48	5
TAP	61	96	1
TAP	61	96	5
TAP	61	144	1
TAP	61	144	5
TAP	61	192	2
TAP	61	192	6
TAP	61	240	2
TAP	61	240	6
TAP	61	288	2
TAP	61	288	6
TAP	61	336	2
TAP	61	336	6
TAP	62	0	1
TAP	62	0	5
TAP	62	48	1
TAP	62	48	5
TAP	62	96	0
TAP	62	96	4
TAP	62	144	0
TAP	62	144	4
TAP	62	192	3
TAP	62	192	7
TAP	62	288	0
TAP	62	288	4
STR	63	0	4
SI_	63	0	4	96	48	7
TAP	63	0	5
TAP	63	96	5
STR	63	192	0
SI_	63	192	0	96	48	3
TAP	63	192	1
TAP	63	288	1
STR	64	0	4
SI_	64	0	4	96	48	7
TAP	64	0	5
TAP	64	96	5
STR	64	192	0
SI_	64	192	0	96	48	3
TAP	64	192	1
TAP	64	288	1
STR	65	0	4
SI_	65	0	4	96	48	7
TAP	65	0	5
TAP	65	96	6
STR	65	192	0
SI_	65	192	0	96	48	3
TAP	65	192	1
TAP	65	288	2
STR	66	0	4
SI_	66	0	4	96	48	7
TAP	66	0	5
TAP	66	96	6
TAP	66	192	0
TAP	66	192	1
TAP	67	0	2
STR	67	0	3
SI_	67	0	3	96	48	0
TAP	67	96	2
TAP	67	192	6
STR	67	192	7
SI_	67	192	7	96	48	4
TAP	67	288	6
TAP	68	0	2
STR	68	0	3
SI_	68	0	3	96	48	0
TAP	68	96	2
TAP	68	192	6
STR	68	192	7
SI_	68	192	7	96	48	4
TAP	68	288	6
TAP	69	0	2
STR	69	0	3
SI_	69	0	3	96	48	0
TAP	69	96	1
TAP	69	192	6
STR	69	192	7
SI_	69	192	7	96	48	4
TAP	69	288	5
TAP	70	0	2
STR	70	0	3
SI_	70	0	3	96	48	0
TAP	70	96	1
TAP	70	192	6
TAP	70	192	7
TAP	70	240	6
TAP	70	240	7
STR	71	0	3
SI_	71	0	3	96	48	7
TAP	71	0	4
TAP	71	96	6
TAP	71	192	3
STR	71	192	4
SI_	71	192	4	96	48	0
TAP	71	288	1
STR	72	0	3
SI_	72	0	3	96	48	7
TAP	72	0	4
TAP	72	96	6
TAP	72	192	3
STR	72	192	4
SI_	72	192	4	96	48	0
TAP	72	288	1
TAP	73	0	3
TAP	73	0	4
TAP	73	96	3
TAP	73	96	4
TAP	73	192	0
TAP	73	192	7
TAP	73	288	0
TAP	73	288	7
TAP	74	0	3
TAP	74	0	4
STR	74	96	3
SI_	74	96	3	96	48	0
TAP	74	96	4
STR	74	192	7
SI_	74	192	7	96	48	4
TAP	75	0	2
STR	75	0	3
SI_	75	0	3	96	48	0
TAP	75	48	2
TAP	75	96	2
TAP	75	192	6
STR	75	192	7
SI_	75	192	7	96	48	4
TAP	75	240	6
TAP	75	288	6
TAP	76	0	2
STR	76	0	3
SI_	76	0	3	96	48	0
TAP	76	48	2
TAP	76	96	2
TAP	76	192	6
STR	76	192	7
SI_	76	192	7	96	48	4
TAP	76	240	6
TAP	76	288	6
TAP	77	0	2
STR	77	0	3
SI_	77	0	3	96	48	0
TAP	77	48	2
TAP	77	96	1
TAP	77	192	6
STR	77	192	7
SI_	77	192	7	96	48	4
TAP	77	240	6
TAP	77	288	5
TAP	78	0	2
STR	78	0	3
SI_	78	0	3	96	48	0
TAP	78	48	2
TAP	78	96	1
TAP	78	192	6
STR	78	192	7
SI_	78	192	7	96	48	4
TAP	78	240	6
TAP	78	288	5
TAP	79	0	2
STR	79	0	3
SI_	79	0	3	96	48	7
TAP	79	48	1
TAP	79	96	0
STR	79	192	4
SI_	79	192	4	96	48	0
TAP	79	192	5
TAP	79	240	6
TAP	79	288	7
TAP	80	0	2
STR	80	0	3
SI_	80	0	3	96	48	7
TAP	80	48	1
TAP	80	96	0
STR	80	192	4
SI_	80	192	4	96	48	0
TAP	80	192	5
TAP	80	240	6
TAP	80	288	7
STR	81	0	3
SI_	81	0	3	96	48	0
TAP	81	0	4
STR	81	96	4
SI_	81	96	4	96	48	7
STR	81	192	3
SCL	81	192	3	96	48	0
STR	81	288	4
SCR	81	288	4	96	144	3
TAP	82	0	3
BST	82	192	1
SXR	82	192	1	96	480	6
BRK	82	192	6
TAP	84	192	3
TAP	84	192	4
STR	85	0	1
SI_	85	0	1	96	96	4
HLD	85	0	5	96
HLD	85	144	6	96
STR	85	288	4
SI_	85	288	4	96	96	1
HLD	85	288	7	96
HLD	86	48	0	96
HLD	86	192	2	96
STR	86	192	6
SI_	86	192	6	96	96	3
HLD	86	336	1	96
HLD	87	96	0	96
STR	87	96	3
SI_	87	96	3	96	96	6
HLD	87	240	7	96
STR	88	0	2
SI_	88	0	2	96	96	5
HLD	88	0	6	96
HLD	88	144	7	96
HLD	88	288	0	96
STR	88	288	5
SI_	88	288	5	96	96	2
HLD	89	48	1	96
HLD	89	192	1	96
STR	89	192	5
SI_	89	192	5	96	96	2
HLD	89	336	0	96
STR	90	96	2
SI_	90	96	2	96	96	5
HLD	90	96	7	96
HLD	90	240	6	96
STR	91	0	2
SI_	91	0	2	96	96	7
HLD	91	0	6	96
HLD	91	144	5	96
HLD	91	288	4	96
STR	91	288	7
SI_	91	288	7	96	96	2
HLD	92	48	3	96
HLD	92	192	1	96
STR	92	192	5
SI_	92	192	5	96	96	0
HLD	92	336	2	96
STR	93	96	0
SI_	93	96	0	96	96	5
HLD	93	96	3	96
HLD	93	240	4	96
STR	94	0	1
SI_	94	0	1	96	96	6
HLD	94	0	5	96
HLD	94	144	4	96
HLD	94	288	3	96
STR	94	288	6
SI_	94	288	6	96	96	1
HLD	95	48	2	96
HLD	95	192	2	96
STR	95	192	6
SI_	95	192	6	96	96	1
HLD	95	336	3	96
STR	96	96	1
SI_	96	96	1	96	96	6
HLD	96	96	4	96
HLD	96	240	5	96
HLD	97	0	0	96
HLD	97	0	3	96
HLD	97	144	2	96
HLD	97	144	5	96
HLD	97	288	4	96
HLD	97	288	7	96
HLD	98	48	2	96
HLD	98	48	5	96
HLD	98	192	4	96
HLD	98	192	7	96
HLD	98	336	4	96
HLD	98	336	7	96
HLD	99	96	4	96
HLD	99	96	7	96
BRK	99	240	1
BRK	99	240	2
HLD	100	0	4	96
HLD	100	0	7	96
HLD	100	144	2	96
HLD	100	144	5	96
HLD	100	288	0	96
HLD	100	288	3	96
HLD	101	48	2	96
HLD	101	48	5	96
TAP	101	192	0
TAP	101	192	3
TAP	101	240	0
TAP	101	240	3
TAP	101	288	0
TAP	101	288	3
TAP	101	336	0
TAP	101	336	3
TAP	102	48	4
TAP	102	48	7
HLD	102	96	4	96
HLD	102	96	7	96
BRK	102	240	1
BRK	102	240	2
TAP	103	0	6
TAP	103	0	7
TAP	103	144	4
TAP	103	144	5
TAP	103	288	2
TAP	103	288	3
TAP	104	48	0
TAP	104	48	1
TAP	104	192	0
TAP	104	192	7
TAP	104	288	1
TAP	104	288	2
TAP	105	0	3
TAP	105	0	4
TAP	105	96	5
TAP	105	96	6
TAP	105	192	0
TAP	105	192	7
STR	105	288	1
SI_	105	288	1	96	96	4
STR	105	288	6
SI_	105	288	6	96	96	3
TAP	108	0	0
STR	108	0	4
SI_	108	0	4	96	48	7
STR	108	96	3
SI_	108	96	3	96	48	0
STR	108	192	4
SI_	108	192	4	96	48	7
TAP	108	288	3
BRK	109	0	0
BRK	109	0	1
BRK	109	48	2
BRK	109	48	7
BRK	109	96	3
BRK	109	96	6
BRK	109	192	6
BRK	109	192	7
BRK	109	240	0
BRK	109	240	5
BRK	109	288	1
BRK	109	288	4
STR	110	0	2
SI_	110	0	2	96	48	7
TAP	110	0	6
STR	110	96	3
SI_	110	96	3	96	48	6
STR	110	192	2
SI_	110	192	2	96	48	7
TAP	110	288	3
BRK	111	0	0
BRK	111	0	5
TAP	111	96	2
TAP	111	96	7
BRK	111	144	2
BRK	111	144	7
TAP	111	240	1
TAP	111	240	6
BRK	111	288	1
BRK	111	288	6
TAP	112	0	1
STR	112	0	5
SI_	112	0	5	96	48	0
STR	112	96	4
SI_	112	96	4	96	48	1
STR	112	192	5
SI_	112	192	5	96	48	0
TAP	112	288	4
BRK	113	0	2
BRK	113	0	4
BRK	113	96	3
BST	113	96	6
SI_	113	96	6	96	48	2
BRK	113	192	0
TAP	114	0	2
STR	114	0	6
SI_	114	0	6	96	48	1
STR	114	96	5
SI_	114	96	5	96	48	2
STR	114	192	6
SI_	114	192	6	96	48	1
TAP	114	288	5
STR	115	0	4
SI_	115	0	4	96	48	1
STR	115	0	5
SI_	115	0	5	96	48	0
STR	115	192	4
SI_	115	192	4	96	48	1
STR	115	192	5
SI_	115	192	5	96	48	0
STR	116	0	5
SI_	116	0	5	96	48	2
STR	116	0	6
SI_	116	0	6	96	48	1
STR	116	192	5
SI_	116	192	5	96	48	2
STR	116	192	6
SI_	116	192	6	96	48	1
STR	117	0	6
SI_	117	0	6	96	48	3
STR	117	0	7
SI_	117	0	7	96	48	2
STR	117	192	6
SI_	117	192	6	96	48	3
STR	117	192	7
SI_	117	192	7	96	48	2
STR	118	0	1
SI_	118	0	1	96	48	4
STR	118	96	6
SI_	118	96	6	96	48	2
STR	118	192	0
SI_	118	192	0	96	48	4
BRK	118	288	7
TAP	119	0	1
TAP	119	0	6
TAP	119	128	0
TAP	119	128	6
TAP	119	192	1
TAP	119	192	7
TAP	119	256	0
TAP	119	256	5
TAP	119	320	2
TAP	119	320	7
BST	120	0	0
SSL	120	0	0	96	192	4
BRK	120	0	4

T_REC_TAP	394
T_REC_BRK	41
T_REC_XTP	0
T_REC_HLD	125
T_REC_XHO	0
T_REC_STR	153
T_REC_BST	3
T_REC_XST	0
T_REC_TTP	0
T_REC_THO	0
T_REC_SLD	156
T_REC_ALL	872
T_NUM_TAP	547
T_NUM_BRK	44
T_NUM_HLD	125
T_NUM_SLD	156
T_NUM_ALL	872
T_JUDGE_TAP	591
T_JUDGE_HLD	202
T_JUDGE_SLD	156
T_JUDGE_ALL	949
TTM_EACHPAIRS	289
TTM_SCR_TAP	273500
TTM_SCR_BRK	114400
TTM_SCR_HLD	125000
TTM_SCR_SLD	234000
TTM_SCR_ALL	746900
TTM_SCR_S	720250
TTM_SCR_SS	742500
TTM_RAT_ACV	10059

