VERSION	0.00.00	1.03.00
FES_MODE	0
BPM_DEF	200.000	200.000	200.000	200.000
MET_DEF	4	4
RESOLUTION	384
CLK_DEF	384
COMPATIBLE_CODE	MA2

BPM	0	0	200.000
MET	1	312	4	4
MET	85	0	4	6
MET	106	0	4	4

TAP	1	0	3
TAP	1	96	4
TAP	1	192	2
TAP	1	192	5
TAP	2	0	2
TAP	2	0	3
TAP	2	96	4
TAP	2	96	5
TAP	2	192	2
TAP	2	192	5
TAP	3	0	3
TAP	3	96	4
TAP	3	192	2
TAP	3	192	5
TAP	4	0	3
TAP	4	0	4
TAP	4	96	3
TAP	4	96	4
HLD	4	192	2	96
HLD	4	192	5	96
BRK	5	0	2
TAP	5	96	2
TAP	5	96	3
TAP	5	192	5
TAP	5	288	4
TAP	5	288	5
TAP	6	0	2
TAP	6	0	3
TAP	6	96	2
TAP	6	96	3
TAP	6	192	1
TAP	6	192	4
TAP	7	0	1
TAP	7	96	0
TAP	7	96	1
TAP	7	192	6
TAP	7	288	6
TAP	7	288	7
STR	8	0	0
SCR	8	0	0	96	192	3
STR	8	0	7
SUR	8	0	7	96	192	4
TAP	9	0	2
TAP	9	96	2
TAP	9	96	3
TAP	9	192	5
TAP	9	288	4
TAP	9	288	5
TAP	10	0	2
TAP	10	0	3
TAP	10	96	2
TAP	10	96	3
TAP	10	192	1
TAP	10	192	4
TAP	11	0	1
TAP	11	96	0
TAP	11	96	1
TAP	11	192	6
TAP	11	288	6
TAP	11	288	7
TAP	12	0	0
TAP	12	0	1
TAP	12	192	6
TAP	12	192	7
TAP	13	0	2
TAP	13	96	2
TAP	13	192	2
TAP	13	192	3
TAP	13	288	1
TAP	13	288	4
TAP	14	0	4
TAP	14	96	3
TAP	14	96	5
TAP	14	192	2
TAP	14	192	6
HLD	15	0	2	96
HLD	15	0	3	96
HLD	15	192	4	96
HLD	15	192	5	96
STR	16	0	3
SI_	16	0	3	96	144	1
STR	16	0	6
SI_	16	0	6	96	144	0
TAP	17	0	1
TAP	17	96	1
TAP	17	192	0
TAP	17	192	1
TAP	17	288	2
TAP	17	288	7
TAP	18	0	7
TAP	18	96	0
TAP	18	96	6
TAP	18	192	1
TAP	18	192	5
TAP	19	0	0
TAP	19	0	1
TAP	19	96	1
TAP	19	192	6
TAP	19	192	7
TAP	19	288	6
HLD	20	0	2	96
HLD	20	0	3	96
HLD	20	192	4	96
HLD	20	192	5	96
TAP	21	0	1
TAP	21	96	1
TAP	21	192	0
TAP	21	192	1
TAP	21	288	2
TAP	21	288	7
TAP	22	0	7
TAP	22	96	0
TAP	22	96	6
TAP	22	192	1
TAP	22	192	5
HLD	23	0	0	96
HLD	23	0	1	96
HLD	23	192	6	96
HLD	23	192	7	96
STR	24	0	0
SI_	24	0	0	96	144	2
STR	24	0	5
SI_	24	0	5	96	144	3
TAP	25	0	2
TAP	25	96	2
TAP	25	192	2
TAP	25	192	3
TAP	25	288	1
TAP	25	288	4
TAP	26	0	4
TAP	26	96	3
TAP	26	96	5
TAP	26	192	2
TAP	26	192	6
TAP	27	0	2
TAP	27	0	3
TAP	27	96	2
TAP	27	192	4
TAP	27	192	5
TAP	27	288	5
HLD	28	0	0	96
HLD	28	0	1	96
HLD	28	192	6	96
HLD	28	192	7	96
TAP	29	0	0
TAP	29	96	0
TAP	29	192	7
TAP	29	288	7
TAP	30	0	1
TAP	30	0	6
TAP	30	96	2
TAP	30	96	5
HLD	30	192	3	96
HLD	30	192	4	96
BRK	31	0	3
TAP	31	96	2
TAP	31	96	4
TAP	31	192	4
TAP	31	288	3
TAP	31	288	5
TAP	32	0	3
TAP	32	96	2
TAP	32	96	4
TAP	32	192	1
TAP	32	192	5
TAP	33	0	0
TAP	33	96	1
TAP	33	96	7
TAP	33	192	7
TAP	33	288	0
TAP	33	288	6
STR	34	0	0
SCR	34	0	0	96	192	3
STR	34	0	7
SUR	34	0	7	96	192	4
TAP	35	0	3
TAP	35	96	2
TAP	35	96	4
TAP	35	192	4
TAP	35	288	3
TAP	35	288	5
TAP	36	0	3
TAP	36	96	2
TAP	36	96	4
TAP	36	192	1
TAP	36	192	5
TAP	37	0	0
TAP	37	96	1
TAP	37	96	7
TAP	37	192	7
TAP	37	288	0
TAP	37	288	6
TAP	38	0	1
TAP	38	0	7
TAP	38	192	0
TAP	38	192	6
STR	39	0	7
SI_	39	0	7	96	144	2
STR	40	0	7
SI_	40	0	7	96	144	2
STR	41	0	6
SI_	41	0	6	96	144	1
STR	42	0	6
SI_	42	0	6	96	144	1
STR	43	0	5
SI_	43	0	5	96	120	2
STR	44	0	5
SI_	44	0	5	96	144	2
STR	45	0	4
SI_	45	0	4	96	144	1
STR	46	0	4
SI_	46	0	4	96	144	1
TAP	47	0	2
TAP	47	96	3
TAP	47	192	1
TAP	47	192	4
TAP	47	288	0
TAP	47	288	5
TAP	48	0	6
TAP	48	96	7
TAP	48	192	0
TAP	48	192	5
TAP	49	0	0
TAP	49	0	7
TAP	49	96	0
TAP	49	96	7
TAP	49	192	1
TAP	49	192	6
TAP	50	0	0
TAP	50	0	7
TAP	50	96	1
TAP	50	96	6
TAP	50	192	2
TAP	50	192	5
TAP	50	288	3
TAP	50	288	4
TAP	51	0	3
TAP	51	0	4
TAP	51	96	3
TAP	51	96	4
TAP	51	192	2
TAP	51	192	5
TAP	52	0	1
TAP	52	96	0
TAP	52	192	2
TAP	52	192	7
TAP	52	288	3
TAP	52	288	6
TAP	53	0	5
TAP	53	96	4
TAP	53	192	3
TAP	53	192	6
STR	54	0	6
SCL	54	0	6	96	192	2
TAP	55	0	0
TAP	55	0	1
TAP	55	192	7
TAP	55	288	7
TAP	56	0	0
TAP	56	0	1
TAP	56	192	6
TAP	56	288	6
HLD	57	0	0	96
HLD	57	0	1	96
HLD	57	192	0	96
HLD	57	192	1	96
TAP	58	0	0
TAP	58	0	1
TAP	58	96	0
TAP	58	96	1
TAP	58	192	2
TAP	58	192	7
TAP	59	0	2
TAP	59	0	3
TAP	59	192	4
TAP	59	288	4
TAP	60	0	2
TAP	60	0	3
TAP	60	192	5
TAP	60	288	5
TAP	61	0	2
TAP	61	0	3
TAP	61	96	1
TAP	61	96	4
TAP	61	192	2
TAP	61	192	3
TAP	61	288	0
TAP	61	288	5
HLD	62	0	2	96
HLD	62	0	3	96
TAP	62	192	0
TAP	62	192	5
HLD	63	0	2	96
TAP	63	96	3
TAP	63	192	1
TAP	63	192	4
TAP	63	288	0
TAP	63	288	5
HLD	64	0	5	96
TAP	64	96	4
TAP	64	192	3
TAP	64	192	6
HLD	65	0	2	96
TAP	65	96	3
TAP	65	192	1
TAP	65	192	4
TAP	65	288	0
TAP	65	288	5
TAP	66	0	6
TAP	66	96	5
TAP	66	96	7
BRK	66	192	0
BRK	66	192	4
HLD	67	0	1	96
TAP	67	96	0
TAP	67	192	2
TAP	67	192	7
TAP	67	288	3
TAP	67	288	6
HLD	68	0	6	96
TAP	68	96	7
TAP	68	192	0
TAP	68	192	5
HLD	69	0	1	96
TAP	69	96	0
TAP	69	192	2
TAP	69	192	7
TAP	69	288	3
TAP	69	288	6
TAP	70	0	5
TAP	70	96	4
TAP	70	96	6
BRK	70	192	3
BRK	70	192	7
HLD	71	0	2	96
TAP	71	96	3
TAP	71	192	1
TAP	71	192	4
TAP	71	288	0
TAP	71	288	5
HLD	72	0	5	96
TAP	72	96	4
TAP	72	192	3
TAP	72	192	6
TAP	73	0	2
TAP	73	0	3
TAP	73	96	2
TAP	73	96	3
TAP	73	192	4
TAP	73	192	5
TAP	73	288	4
TAP	73	288	5
STR	74	0	3
SI_	74	0	3	96	144	0
STR	74	0	4
SI_	74	0	4	96	144	7
HLD	75	0	1	96
TAP	75	96	0
TAP	75	192	2
TAP	75	192	7
TAP	75	288	3
TAP	75	288	6
HLD	76	0	6	96
TAP	76	96	7
TAP	76	192	0
TAP	76	192	5
HLD	77	0	1	96
TAP	77	96	0
TAP	77	192	2
TAP	77	192	7
TAP	77	288	3
TAP	77	288	6
TAP	78	0	5
TAP	78	96	4
TAP	78	96	6
BRK	78	192	3
BRK	78	192	7
HLD	79	0	3	192
HLD	79	192	2	192
HLD	80	0	1	192
HLD	80	192	0	192
STR	81	0	7
SCL	81	0	7	96	384	1
TAP	82	192	1
TAP	82	192	6
TAP	84	192	0
TAP	84	192	7
HLD	85	0	0	96
HLD	85	0	1	96
HLD	85	144	0	96
HLD	85	144	1	96
TAP	85	288	0
TAP	85	288	1
TAP	86	48	0
TAP	86	48	1
HLD	86	192	6	96
HLD	86	192	7	96
HLD	86	336	6	96
HLD	86	336	7	96
TAP	87	96	6
TAP	87	96	7
TAP	87	240	0
TAP	87	240	5
HLD	88	0	2	96
HLD	88	0	3	96
HLD	88	144	2	96
HLD	88	144	3	96
TAP	88	288	2
TAP	88	288	3
TAP	89	48	2
TAP	89	48	3
HLD	89	192	4	96
HLD	89	192	5	96
HLD	89	336	4	96
HLD	89	336	5	96
TAP	90	96	4
TAP	90	96	5
TAP	90	240	3
TAP	90	240	6
HLD	91	0	0	96
HLD	91	0	1	96
HLD	91	144	0	96
HLD	91	144	1	96
TAP	91	288	0
TAP	91	288	1
TAP	92	48	0
TAP	92	48	1
HLD	92	192	6	96
HLD	92	192	7	96
HLD	92	336	6	96
HLD	92	336	7	96
TAP	93	96	6
TAP	93	96	7
TAP	93	240	0
TAP	93	240	5
HLD	94	0	2	96
HLD	94	0	3	96
HLD	94	144	2	96
HLD	94	144	3	96
TAP	94	288	2
TAP	94	288	3
TAP	95	48	2
TAP	95	48	3
HLD	95	192	4	96
HLD	95	192	5	96
HLD	95	336	4	96
HLD	95	336	5	96
TAP	96	96	4
TAP	96	96	5
TAP	96	240	3
TAP	96	240	6
TAP	97	0	2
TAP	97	0	3
TAP	97	144	4
TAP	97	288	2
TAP	97	288	3
TAP	98	48	5
TAP	98	192	2
TAP	98	192	3
TAP	98	336	2
TAP	98	336	3
TAP	99	96	2
TAP	99	96	3
TAP	99	240	1
TAP	99	240	4
TAP	100	0	0
TAP	100	0	1
TAP	100	144	7
TAP	100	288	0
TAP	100	288	1
TAP	101	48	6
TAP	101	192	0
TAP	101	192	1
TAP	101	336	0
TAP	101	336	1
TAP	102	96	0
TAP	102	96	1
TAP	102	240	2
TAP	102	240	7
TAP	103	0	4
TAP	103	0	5
TAP	103	144	4
TAP	103	144	5
TAP	103	288	4
TAP	103	288	5
TAP	104	48	4
TAP	104	48	5
HLD	104	192	6	480
HLD	104	192	7	480
STR	106	0	7
SCL	106	0	7	96	480	0
BRK	108	0	1
TAP	108	96	0
TAP	108	96	2
TAP	108	192	6
TAP	108	288	5
TAP	108	288	7
TAP	109	0	1
TAP	109	96	0
TAP	109	96	2
TAP	109	192	3
TAP	109	192	7
TAP	110	0	2
TAP	110	96	1
TAP	110	96	3
TAP	110	192	5
TAP	110	288	4
TAP	110	288	6
TAP	111	0	1
TAP	111	0	3
TAP	111	96	4
TAP	111	96	6
BRK	111	192	0
BRK	111	192	7
TAP	112	0	1
TAP	112	96	0
TAP	112	96	2
TAP	112	192	6
TAP	112	288	5
TAP	112	288	7
TAP	113	0	0
TAP	113	0	2
TAP	113	96	5
TAP	113	96	7
TAP	113	192	2
TAP	113	192	5
TAP	114	0	2
TAP	114	0	3
TAP	114	96	1
TAP	114	96	3
TAP	114	192	4
TAP	114	192	5
TAP	114	288	4
TAP	114	288	6
STR	115	0	3
SI_	115	0	3	96	144	0
STR	115	0	4
SI_	115	0	4	96	144	7
TAP	116	0	6
TAP	116	0	7
TAP	116	96	6
TAP	116	96	7
TAP	116	192	0
TAP	116	192	1
TAP	116	288	0
TAP	116	288	1
STR	117	0	6
SI_	117	0	6	96	144	3
STR	117	0	7
SI_	117	0	7	96	144	2
STR	118	0	5
SI_	118	0	5	96	144	2
STR	118	0	6
SI_	118	0	6	96	144	1
STR	119	0	4
SI_	119	0	4	96	144	1
STR	119	0	5
SI_	119	0	5	96	144	0
BST	120	0	0
SCR	120	0	0	96	240	3
BST	120	0	4
SCR	120	0	4	96	240	7

T_REC_TAP	414
T_REC_BRK	11
T_REC_XTP	0
T_REC_HLD	75
T_REC_XHO	0
T_REC_STR	29
T_REC_BST	2
T_REC_XST	0
T_REC_TTP	0
T_REC_THO	0
T_REC_SLD	31
T_REC_ALL	562
T_NUM_TAP	443
T_NUM_BRK	13
T_NUM_HLD	75
T_NUM_SLD	31
T_NUM_ALL	562
T_JUDGE_TAP	456
T_JUDGE_HLD	174
T_JUDGE_SLD	31
T_JUDGE_ALL	661
TTM_EACHPAIRS	211
TTM_SCR_TAP	221500
TTM_SCR_BRK	33800
TTM_SCR_HLD	75000
TTM_SCR_SLD	46500
TTM_SCR_ALL	376800
TTM_SCR_S	364250
TTM_SCR_SS	375500
TTM_RAT_ACV	10034

