VERSION	0.00.00	1.03.00
FES_MODE	0
BPM_DEF	200.000	200.000	200.000	200.000
MET_DEF	4	4
RESOLUTION	384
CLK_DEF	384
COMPATIBLE_CODE	MA2

BPM	0	0	200.000
MET	0	0	4	4
MET	85	0	4	6
MET	106	0	4	4

TAP	1	0	0
TAP	1	192	0
TAP	2	0	7
TAP	2	192	7
TAP	3	0	0
TAP	3	96	0
TAP	3	192	0
TAP	4	0	7
TAP	4	96	7
BRK	4	192	7
TAP	5	0	0
TAP	5	96	0
TAP	5	192	1
TAP	5	288	1
TAP	6	0	2
TAP	6	96	2
TAP	6	192	3
TAP	7	0	4
TAP	7	96	4
TAP	7	192	5
TAP	7	288	5
TAP	8	0	6
TAP	8	96	6
TAP	8	192	0
TAP	8	192	7
TAP	9	0	6
TAP	9	96	6
TAP	9	192	5
TAP	9	288	5
TAP	10	0	4
TAP	10	96	4
TAP	10	192	3
TAP	11	0	2
TAP	11	96	2
TAP	11	192	1
TAP	11	288	1
TAP	12	0	0
TAP	12	0	7
BRK	12	192	0
BRK	12	192	7
TAP	13	0	0
TAP	13	96	0
TAP	13	192	1
TAP	13	192	7
TAP	14	0	7
TAP	14	96	7
TAP	14	192	0
TAP	14	192	6
STR	15	0	0
SI_	15	0	0	96	288	4
TAP	17	0	7
TAP	17	96	7
TAP	17	192	0
TAP	17	192	6
TAP	18	0	0
TAP	18	96	0
TAP	18	192	1
TAP	18	192	7
STR	19	0	7
SI_	19	0	7	96	288	3
TAP	21	0	3
TAP	21	96	3
TAP	21	192	2
TAP	21	192	4
TAP	22	0	4
TAP	22	96	4
TAP	22	192	3
TAP	22	192	5
STR	23	0	3
SI_	23	0	3	96	288	7
TAP	25	0	4
TAP	25	96	4
TAP	25	192	3
TAP	25	192	5
TAP	26	0	3
TAP	26	96	3
TAP	26	192	2
TAP	26	192	4
STR	27	0	4
SI_	27	0	4	96	288	0
TAP	29	0	3
TAP	29	96	3
TAP	29	192	4
TAP	29	288	4
TAP	30	0	3
TAP	30	0	4
TAP	30	96	3
TAP	30	96	4
BRK	30	192	2
BRK	30	192	5
TAP	31	0	4
TAP	31	96	4
TAP	31	192	5
TAP	31	288	5
TAP	32	0	6
TAP	32	96	6
TAP	32	192	7
TAP	33	0	0
TAP	33	96	0
TAP	33	192	1
TAP	33	288	1
TAP	34	0	2
TAP	34	96	2
TAP	34	192	3
TAP	34	192	4
TAP	35	0	2
TAP	35	96	2
TAP	35	192	1
TAP	35	288	1
TAP	36	0	0
TAP	36	96	0
TAP	36	192	7
TAP	37	0	6
TAP	37	96	6
TAP	37	192	5
TAP	37	288	5
TAP	38	0	3
TAP	38	0	4
BRK	38	192	2
BRK	38	192	5
TAP	39	0	4
TAP	39	96	4
TAP	39	192	2
TAP	40	0	4
TAP	40	96	4
TAP	40	192	2
TAP	41	0	5
TAP	41	96	5
TAP	41	192	2
TAP	42	0	5
TAP	42	96	5
TAP	42	192	2
TAP	43	0	4
TAP	43	96	5
TAP	43	192	2
TAP	44	0	4
TAP	44	96	5
TAP	44	192	2
TAP	45	0	4
TAP	45	96	4
TAP	45	192	5
TAP	45	288	5
TAP	46	0	2
TAP	46	96	2
TAP	46	192	2
TAP	47	0	2
TAP	47	96	3
TAP	47	192	4
TAP	48	0	5
TAP	48	96	4
TAP	48	192	3
TAP	49	0	2
TAP	49	96	3
TAP	49	192	4
TAP	49	192	5
TAP	50	0	5
TAP	50	96	4
TAP	50	192	2
TAP	50	192	3
TAP	51	0	2
TAP	51	96	4
TAP	51	192	3
TAP	51	192	4
TAP	52	0	5
TAP	52	96	3
TAP	52	192	3
TAP	52	192	4
TAP	53	0	3
TAP	53	96	3
TAP	53	192	2
TAP	53	288	2
HLD	54	0	0	192
HLD	54	0	1	192
TAP	55	0	0
TAP	55	0	1
TAP	56	0	6
TAP	56	0	7
TAP	57	0	0
TAP	57	0	1
TAP	57	192	0
TAP	57	192	1
BRK	58	0	0
BRK	58	0	1
TAP	59	0	6
TAP	59	0	7
TAP	60	0	0
TAP	60	0	1
TAP	61	0	6
TAP	61	0	7
BRK	61	192	6
BRK	61	192	7
TAP	62	0	0
TAP	62	0	1
BRK	62	192	0
BRK	62	192	1
TAP	63	0	7
TAP	63	96	7
TAP	63	192	5
TAP	63	288	5
TAP	64	0	3
TAP	64	0	4
TAP	64	96	3
TAP	64	96	4
TAP	64	192	3
TAP	64	192	4
TAP	65	0	0
TAP	65	96	0
TAP	65	192	2
TAP	65	288	2
TAP	66	0	3
TAP	66	0	4
TAP	66	96	3
TAP	66	96	4
TAP	66	192	3
TAP	66	192	4
TAP	67	0	7
TAP	67	96	7
TAP	67	192	5
TAP	67	288	5
TAP	68	0	3
TAP	68	0	4
TAP	68	96	3
TAP	68	96	4
TAP	68	192	3
TAP	68	192	4
TAP	69	0	0
TAP	69	96	0
TAP	69	192	2
TAP	69	288	2
TAP	70	0	3
TAP	70	0	4
TAP	70	96	3
TAP	70	96	4
TAP	70	192	3
TAP	70	192	4
TAP	71	0	7
TAP	71	96	7
TAP	71	192	5
TAP	71	288	5
TAP	72	0	3
TAP	72	0	4
TAP	72	96	3
TAP	72	96	4
TAP	72	192	3
TAP	72	192	4
TAP	73	0	3
TAP	73	96	3
TAP	73	192	4
TAP	73	288	4
TAP	74	0	3
TAP	74	0	4
TAP	74	96	3
TAP	74	96	4
TAP	74	192	2
TAP	74	192	5
TAP	75	0	3
TAP	75	96	3
TAP	75	192	1
TAP	75	288	1
TAP	76	0	0
TAP	76	0	7
TAP	76	96	0
TAP	76	96	7
TAP	76	192	0
TAP	76	192	7
TAP	77	0	4
TAP	77	96	4
TAP	77	192	6
TAP	77	288	6
TAP	78	0	0
TAP	78	0	7
TAP	78	96	0
TAP	78	96	7
TAP	78	192	0
TAP	78	192	7
TAP	79	0	6
TAP	79	0	7
TAP	79	192	4
TAP	79	192	5
TAP	80	0	2
TAP	80	0	3
TAP	80	192	0
TAP	80	192	1
TAP	81	0	7
TAP	81	96	7
TAP	81	192	0
TAP	81	288	0
TAP	82	0	0
TAP	82	0	7
TAP	82	96	0
TAP	82	96	7
BRK	82	192	0
BRK	82	192	7
TAP	85	0	0
TAP	85	144	0
TAP	85	288	0
TAP	86	192	7
TAP	86	336	7
TAP	87	96	7
TAP	88	0	3
TAP	88	144	3
TAP	88	288	3
TAP	89	192	4
TAP	89	336	4
TAP	90	96	4
TAP	91	0	0
TAP	91	144	0
TAP	91	288	0
TAP	91	288	1
TAP	92	192	7
TAP	92	336	7
TAP	93	96	6
TAP	93	96	7
TAP	94	0	3
TAP	94	144	3
TAP	94	288	2
TAP	94	288	3
TAP	95	192	4
TAP	95	336	4
TAP	96	96	4
TAP	96	96	5
TAP	97	0	0
TAP	97	0	1
TAP	97	288	6
TAP	97	288	7
TAP	98	192	0
TAP	98	192	1
TAP	98	336	0
TAP	98	336	1
BRK	99	96	0
BRK	99	96	1
TAP	100	0	6
TAP	100	0	7
TAP	100	288	0
TAP	100	288	1
TAP	101	192	6
TAP	101	192	7
TAP	101	336	6
TAP	101	336	7
BRK	102	96	6
BRK	102	96	7
TAP	103	0	3
TAP	103	0	4
TAP	103	144	3
TAP	103	144	4
TAP	103	288	2
TAP	103	288	5
TAP	104	48	2
TAP	104	48	5
HLD	104	192	3	576
HLD	104	192	4	576
TAP	108	0	4
TAP	108	96	4
TAP	108	192	5
TAP	108	288	5
HLD	109	0	6	192
TAP	110	0	0
TAP	110	96	0
TAP	110	192	1
TAP	110	288	1
HLD	111	0	2	192
TAP	112	0	4
TAP	112	96	4
TAP	112	192	3
TAP	112	288	3
HLD	113	0	2	192
TAP	114	0	1
TAP	114	96	1
TAP	114	192	0
TAP	114	288	0
BRK	115	0	0
BRK	115	0	7
BRK	115	96	0
BRK	115	96	7
BRK	115	192	0
BRK	115	192	7
TAP	116	0	7
TAP	116	96	7
TAP	116	192	0
TAP	116	288	0
TAP	117	0	7
TAP	117	96	7
TAP	117	192	0
TAP	117	288	0
TAP	118	0	7
TAP	118	96	0
TAP	118	192	7
TAP	118	288	0
STR	119	0	0
SI_	119	0	0	96	288	3
STR	119	0	7
SI_	119	0	7	96	288	4

T_REC_TAP	348
T_REC_BRK	25
T_REC_XTP	0
T_REC_HLD	7
T_REC_XHO	0
T_REC_STR	6
T_REC_BST	0
T_REC_XST	0
T_REC_TTP	0
T_REC_THO	0
T_REC_SLD	6
T_REC_ALL	392
T_NUM_TAP	354
T_NUM_BRK	25
T_NUM_HLD	7
T_NUM_SLD	6
T_NUM_ALL	392
T_JUDGE_TAP	379
T_JUDGE_HLD	44
T_JUDGE_SLD	6
T_JUDGE_ALL	429
TTM_EACHPAIRS	87
TTM_SCR_TAP	177000
TTM_SCR_BRK	65000
TTM_SCR_HLD	7000
TTM_SCR_SLD	9000
TTM_SCR_ALL	258000
TTM_SCR_S	247850
TTM_SCR_SS	255500
TTM_RAT_ACV	10097

