VERSION	0.00.00	1.03.00
FES_MODE	0
BPM_DEF	220.000	220.000	220.000	220.000
MET_DEF	4	4
RESOLUTION	384
CLK_DEF	384
COMPATIBLE_CODE	MA2

BPM	0	0	220.000

TAP	1	240	4
TAP	1	288	3
TAP	1	336	4
TAP	2	0	2
TAP	2	0	3
TAP	2	96	4
TAP	2	96	5
TAP	2	192	1
TAP	2	192	3
TAP	2	288	4
TAP	2	288	6
STR	3	0	0
SCR	3	0	0	96	288	7
HLD	3	0	3	384
TAP	4	96	0
TAP	4	192	1
TAP	4	192	7
TAP	4	288	2
TAP	4	288	6
HLD	5	0	5	96
TAP	5	96	4
HLD	5	192	2	96
TAP	5	288	3
HLD	6	0	6	96
TAP	6	96	4
HLD	6	192	1	96
TAP	6	288	3
HLD	7	0	7	96
TAP	7	96	4
HLD	7	192	0	96
TAP	7	288	3
TAP	8	0	7
TAP	8	96	0
TAP	8	96	6
TAP	8	192	5
TAP	8	288	4
TAP	8	288	6
TAP	9	0	3
TAP	9	96	2
TAP	9	96	4
TAP	9	192	4
TAP	9	240	3
TAP	9	288	3
TAP	9	336	3
STR	10	0	6
SCL	10	0	6	96	48	4
TAP	10	96	1
STR	10	192	7
SCR	10	192	7	96	48	1
TAP	10	288	4
STR	11	0	6
SCL	11	0	6	96	48	4
TAP	11	96	1
TAP	11	192	2
TAP	11	240	4
TAP	11	288	3
TAP	11	336	4
STR	12	0	1
SCR	12	0	1	96	48	3
TAP	12	96	6
TAP	12	192	0
STR	12	288	3
SI_	12	288	3	96	48	7
TAP	12	288	7
STR	13	0	6
SI_	13	0	6	96	48	4
STR	13	96	0
SI_	13	96	0	96	48	2
STR	13	192	7
SI_	13	192	7	96	48	3
TAP	13	288	7
STR	14	0	2
SV_	14	0	2	96	96	5
TAP	14	96	7
TAP	14	144	7
TAP	14	288	3
TAP	14	288	4
STR	15	0	5
SV_	15	0	5	96	96	2
TAP	15	96	0
TAP	15	144	0
TAP	15	288	3
TAP	15	288	4
TAP	16	0	1
TAP	16	96	2
TAP	16	96	7
TAP	16	192	6
TAP	16	288	0
TAP	16	288	5
TAP	17	0	3
TAP	17	96	2
STR	17	96	5
SUL	17	96	5	96	96	3
STR	18	0	1
SCR	18	0	1	96	48	3
TAP	18	96	6
STR	18	192	0
SCL	18	192	0	96	48	6
TAP	18	288	3
STR	19	0	1
SCR	19	0	1	96	48	3
TAP	19	96	6
TAP	19	192	5
TAP	19	240	3
TAP	19	288	4
TAP	19	336	3
STR	20	0	6
SCL	20	0	6	96	48	4
TAP	20	96	1
TAP	20	192	7
TAP	20	288	0
STR	20	288	4
SI_	20	288	4	96	48	0
STR	21	0	1
SI_	21	0	1	96	48	3
STR	21	96	7
SI_	21	96	7	96	48	5
STR	21	192	0
SI_	21	192	0	96	48	4
TAP	21	288	0
STR	22	0	5
SLR	22	0	5	96	96	2
TAP	22	96	0
TAP	22	144	0
TAP	22	288	3
TAP	22	288	4
STR	23	0	2
SLL	23	0	2	96	96	5
TAP	23	96	7
TAP	23	144	7
TAP	23	288	3
TAP	23	288	4
TAP	24	0	6
TAP	24	96	0
TAP	24	96	5
TAP	24	192	1
TAP	24	288	2
TAP	24	288	7
TAP	25	0	6
TAP	25	96	0
TAP	25	96	5
TAP	25	192	2
TAP	25	192	7
TAP	25	288	3
TAP	25	288	4
HLD	26	0	2	96
TAP	26	96	3
TAP	26	144	2
TAP	26	192	4
TAP	26	240	3
TAP	26	288	5
TAP	26	336	4
HLD	27	0	5	96
TAP	27	96	4
TAP	27	144	5
TAP	27	192	3
TAP	27	240	4
TAP	27	288	2
TAP	27	336	3
HLD	28	0	2	96
TAP	28	96	4
TAP	28	144	3
TAP	28	192	5
TAP	28	240	2
TAP	28	288	6
TAP	28	336	1
STR	29	0	7
SV_	29	0	7	96	192	4
TAP	29	96	0
TAP	29	192	1
TAP	29	288	2
HLD	30	0	6	96
TAP	30	96	4
TAP	30	144	5
TAP	30	192	3
TAP	30	240	4
TAP	30	288	2
TAP	30	336	3
HLD	31	0	1	96
TAP	31	96	3
TAP	31	144	2
TAP	31	192	4
TAP	31	240	3
TAP	31	288	5
TAP	31	336	4
TAP	32	0	6
TAP	32	96	5
TAP	32	96	7
TAP	32	192	1
TAP	32	288	0
TAP	32	288	2
TAP	33	0	5
TAP	33	96	4
STR	33	96	6
SUL	33	96	6	96	96	1
STR	34	0	0
SI_	34	0	0	96	48	6
TAP	34	96	3
TAP	34	144	3
STR	34	192	3
SI_	34	192	3	96	48	7
TAP	34	288	0
STR	35	0	2
SI_	35	0	2	96	48	4
TAP	35	96	7
TAP	35	144	7
STR	35	192	7
SI_	35	192	7	96	48	3
TAP	35	288	2
STR	36	0	1
SI_	36	0	1	96	48	7
TAP	36	96	4
TAP	36	144	4
STR	36	192	4
SI_	36	192	4	96	48	0
TAP	36	288	1
STR	37	0	3
SI_	37	0	3	96	48	5
TAP	37	96	0
TAP	37	144	0
TAP	37	192	0
TAP	37	288	2
TAP	37	288	5
STR	38	0	7
SI_	38	0	7	96	48	1
TAP	38	96	4
TAP	38	144	4
STR	38	192	4
SI_	38	192	4	96	48	0
TAP	38	288	7
STR	39	0	5
SI_	39	0	5	96	48	3
TAP	39	96	0
TAP	39	144	0
STR	39	192	0
SI_	39	192	0	96	48	4
TAP	39	288	5
TAP	40	0	6
TAP	40	96	3
TAP	40	96	7
TAP	40	192	5
TAP	40	240	2
TAP	40	288	4
TAP	40	336	3
TAP	41	0	5
TAP	41	48	4
TAP	41	96	6
TAP	41	144	3
TAP	41	192	7
TAP	41	288	2
TAP	41	288	5
TAP	42	0	0
STR	42	0	7
SI_	42	0	7	96	48	3
TAP	42	96	1
TAP	42	144	1
TAP	42	288	0
TAP	42	288	2
STR	43	0	0
SI_	43	0	0	96	48	4
TAP	43	0	7
TAP	43	96	6
TAP	43	144	6
TAP	43	288	5
TAP	43	288	7
TAP	44	0	0
STR	44	0	7
SI_	44	0	7	96	48	3
TAP	44	96	1
TAP	44	144	1
TAP	44	288	0
TAP	44	288	2
TAP	45	0	1
TAP	45	48	7
STR	45	96	0
SSL	45	96	0	96	96	4
TAP	46	0	3
STR	46	0	4
SI_	46	0	4	96	48	0
TAP	46	96	2
TAP	46	144	2
TAP	46	288	1
TAP	46	288	3
STR	47	0	3
SI_	47	0	3	96	48	7
TAP	47	0	4
TAP	47	96	5
TAP	47	144	5
TAP	47	288	4
TAP	47	288	6
TAP	48	0	3
TAP	48	0	4
TAP	48	96	0
TAP	48	96	7
TAP	48	144	0
STR	48	144	7
SXR	48	144	7	96	48	5
TAP	49	0	3
TAP	49	0	4
TAP	49	96	0
TAP	49	96	7
STR	49	144	0
SXL	49	144	0	96	48	2
TAP	49	144	7
TAP	50	0	5
TAP	50	48	4
TAP	50	96	3
TAP	50	96	6
TAP	50	192	2
TAP	50	240	3
TAP	50	288	1
TAP	50	288	4
TAP	51	0	5
TAP	51	48	4
TAP	51	96	3
TAP	51	96	7
TAP	51	192	2
TAP	51	240	3
TAP	51	288	0
STR	51	288	4
SUR	51	288	4	96	96	0
STR	52	0	0
SUR	52	0	0	96	96	4
STR	52	96	4
SCR	52	96	4	96	96	0
STR	52	192	0
SCR	52	192	0	96	96	4
STR	52	288	4
SF_	52	288	4	96	192	0
TAP	53	288	3
TAP	53	288	4
BST	54	0	5
SCR	54	0	5	96	48	0
TAP	54	96	3
STR	54	192	2
SV_	54	192	2	96	96	4
TAP	54	288	4
STR	55	0	5
SCR	55	0	5	96	48	0
TAP	55	96	3
STR	55	192	2
SLL	55	192	2	96	96	4
TAP	55	288	4
STR	56	0	5
SCR	56	0	5	96	48	0
TAP	56	96	3
STR	56	192	2
SUL	56	192	2	96	96	4
TAP	56	288	4
HLD	57	0	7	96
HLD	57	96	5	96
HLD	57	192	3	96
TAP	57	288	1
STR	58	0	5
SLR	58	0	5	96	96	3
TAP	58	96	3
STR	58	192	2
SLR	58	192	2	96	96	0
TAP	58	288	4
STR	59	0	5
SLR	59	0	5	96	96	3
TAP	59	96	3
STR	59	192	2
SLR	59	192	2	96	96	0
TAP	59	288	4
TAP	60	0	6
TAP	60	48	7
TAP	60	96	0
TAP	60	96	5
TAP	60	192	1
TAP	60	240	0
TAP	60	288	2
TAP	60	288	7
TAP	61	0	6
TAP	61	48	7
TAP	61	96	0
TAP	61	96	5
TAP	61	192	1
TAP	61	192	6
TAP	61	288	3
TAP	61	288	4
STR	62	0	2
SCL	62	0	2	96	48	7
TAP	62	96	4
STR	62	192	5
SV_	62	192	5	96	96	3
TAP	62	288	3
STR	63	0	2
SCL	63	0	2	96	48	7
TAP	63	96	4
STR	63	192	5
SLR	63	192	5	96	96	3
TAP	63	288	3
STR	64	0	2
SCL	64	0	2	96	48	7
TAP	64	96	4
STR	64	192	5
SUR	64	192	5	96	96	3
TAP	64	288	3
HLD	65	0	0	96
HLD	65	96	2	96
HLD	65	192	4	96
TAP	65	288	6
STR	66	0	2
SLL	66	0	2	96	96	4
TAP	66	96	4
STR	66	192	5
SLR	66	192	5	96	96	3
TAP	66	288	3
STR	67	0	2
SLL	67	0	2	96	96	4
TAP	67	96	4
STR	67	192	5
SLR	67	192	5	96	96	3
TAP	67	288	3
BST	68	0	0
SF_	68	0	0	96	144	4
STR	68	288	0
SF_	68	288	0	96	144	4
TAP	69	288	4
TAP	69	336	3
TAP	70	0	6
TAP	70	96	0
TAP	70	96	7
TAP	70	192	2
TAP	70	240	5
TAP	70	288	3
TAP	70	336	4
HLD	71	0	3	192
HLD	71	96	4	96
TAP	71	288	3
TAP	71	288	4
TAP	72	0	1
TAP	72	48	1
TAP	72	96	0
TAP	72	144	0
TAP	72	192	2
TAP	72	240	2
STR	72	288	7
SXR	72	288	7	96	288	4
STR	72	336	7
SXL	72	336	7	96	240	2
HLD	74	0	6	96
TAP	74	96	4
TAP	74	144	6
TAP	74	192	3
TAP	74	240	7
TAP	74	288	2
TAP	74	336	0
HLD	75	0	1	96
TAP	75	96	3
TAP	75	144	1
TAP	75	192	4
TAP	75	240	0
TAP	75	288	5
TAP	75	336	7
HLD	76	0	6	96
TAP	76	96	7
HLD	76	192	1	96
TAP	76	288	0
HLD	77	0	5	96
TAP	77	96	6
HLD	77	192	2	96
TAP	77	288	1
HLD	78	0	4	96
TAP	78	96	6
HLD	78	192	3	96
TAP	78	288	1
HLD	79	0	4	96
TAP	79	96	5
HLD	79	192	3	96
TAP	79	288	2
TAP	80	0	4
TAP	80	96	5
TAP	80	96	6
TAP	80	192	3
TAP	80	288	1
TAP	80	288	2
HLD	81	0	4	288
TAP	81	96	3
TAP	81	192	3
TAP	81	288	3
BST	82	0	7
SF_	82	0	7	96	192	3
BST	83	0	0
SF_	83	0	0	96	192	4
TAP	84	0	7
TAP	84	96	0
TAP	84	96	6
TAP	84	192	5
STR	84	288	4
SI_	84	288	4	96	48	0
TAP	84	288	6
STR	85	0	5
SI_	85	0	5	96	48	7
STR	85	96	3
SI_	85	96	3	96	48	1
STR	85	192	0
SI_	85	192	0	96	48	4
TAP	85	288	0
STR	86	0	3
SXR	86	0	3	96	192	0
TAP	86	96	5
TAP	86	144	5
TAP	86	288	6
STR	87	0	7
SXR	87	0	7	96	192	4
TAP	87	96	1
TAP	87	144	1
TAP	87	288	2
TAP	88	0	3
TAP	88	48	4
TAP	88	96	1
TAP	88	96	5
TAP	88	192	4
TAP	88	240	3
TAP	88	288	2
TAP	88	288	6
TAP	89	0	2
TAP	89	48	3
TAP	89	96	0
TAP	89	96	4
TAP	89	192	5
TAP	89	240	4
HLD	89	288	3	576
TAP	89	288	7
BRK	90	0	0
TAP	90	96	6
TAP	90	192	1
TAP	90	288	5
TAP	91	0	2
TAP	91	96	4
TAP	91	192	3
TAP	91	288	2
TAP	91	288	5
HLD	92	0	7	1440
TAP	94	288	4
TAP	95	0	4
TAP	95	96	3
TAP	95	192	2
TAP	95	288	1
TAP	95	336	6
TAP	96	0	0
TAP	96	48	7
BRK	96	96	1
BRK	96	96	6
STR	96	192	6
SCR	96	192	6	96	48	1
TAP	96	288	3
STR	97	0	2
SCL	97	0	2	96	48	7
TAP	97	96	4
STR	97	192	5
SCR	97	192	5	96	48	0
TAP	97	288	3
TAP	98	0	2
TAP	98	96	1
TAP	98	96	7
TAP	98	192	5
TAP	98	288	0
TAP	98	288	6
TAP	99	0	2
TAP	99	96	1
TAP	99	96	7
TAP	99	192	2
TAP	99	192	5
TAP	99	288	3
TAP	99	288	4
BST	100	0	5
SLL	100	0	5	96	96	7
TAP	100	96	3
STR	100	192	2
SV_	100	192	2	96	96	4
TAP	100	288	4
STR	101	0	5
SLL	101	0	5	96	96	7
TAP	101	96	3
STR	101	192	2
SLL	101	192	2	96	96	4
TAP	101	288	4
STR	102	0	5
SLL	102	0	5	96	96	7
TAP	102	96	3
STR	102	192	2
SUL	102	192	2	96	96	4
TAP	102	288	4
HLD	103	0	6	96
HLD	103	96	4	96
HLD	103	192	2	96
TAP	103	288	0
STR	104	0	5
SLR	104	0	5	96	96	3
TAP	104	96	3
STR	104	192	2
SLL	104	192	2	96	96	4
TAP	104	288	4
STR	105	0	5
SLR	105	0	5	96	96	3
TAP	105	96	3
STR	105	192	2
SLL	105	192	2	96	96	4
TAP	105	288	4
BST	106	0	7
SF_	106	0	7	96	144	3
STR	106	288	7
SF_	106	288	7	96	144	3
TAP	107	288	2
TAP	107	288	5
BST	108	0	1
SCL	108	0	1	96	48	6
TAP	108	96	5
STR	108	192	4
SCL	108	192	4	96	48	1
TAP	108	288	0
STR	109	0	7
SCL	109	0	7	96	48	4
TAP	109	96	3
TAP	109	192	0
TAP	109	288	1
TAP	109	288	6
BST	110	0	6
SCR	110	0	6	96	48	1
TAP	110	96	2
STR	110	192	3
SCR	110	192	3	96	48	6
TAP	110	288	7
BST	111	0	0
SCR	111	0	0	96	48	3
TAP	111	96	4
TAP	111	192	7
TAP	111	288	5
TAP	111	336	4
TAP	112	0	3
TAP	112	0	6
TAP	112	96	1
TAP	112	96	4
TAP	112	192	2
TAP	112	240	4
TAP	112	288	3
TAP	112	336	4
HLD	113	0	3	288
TAP	113	96	2
TAP	113	192	2
TAP	113	288	2
STR	114	0	0
SI_	114	0	0	96	48	4
TAP	114	96	2
STR	114	192	7
SI_	114	192	7	96	48	3
TAP	114	288	5
STR	115	0	0
SI_	115	0	0	96	48	4
TAP	115	96	2
TAP	115	192	3
TAP	115	240	5
TAP	115	288	4
TAP	115	336	5
STR	116	0	7
SI_	116	0	7	96	48	3
TAP	116	96	5
STR	116	192	0
SI_	116	192	0	96	48	4
TAP	116	288	2
TAP	117	0	5
TAP	117	0	7
TAP	117	96	3
TAP	117	96	5
TAP	117	192	1
TAP	117	192	3
TAP	117	288	1
TAP	117	288	7
STR	118	0	5
SLR	118	0	5	96	96	3
TAP	118	96	0
TAP	118	144	0
TAP	118	288	2
TAP	118	288	4
STR	119	0	2
SLL	119	0	2	96	96	4
TAP	119	96	7
TAP	119	144	7
TAP	119	288	3
TAP	119	288	5
TAP	120	0	6
TAP	120	48	7
TAP	120	96	0
TAP	120	96	5
TAP	120	192	1
TAP	120	240	0
TAP	120	288	2
TAP	120	288	7
TAP	121	0	6
TAP	121	48	7
TAP	121	96	0
STR	121	96	5
SUL	121	96	5	96	96	3
BST	122	0	1
SF_	122	0	1	96	192	5
STR	123	0	2
SF_	123	0	2	96	192	6
BST	124	0	3
SF_	124	0	3	96	192	7
STR	125	0	4
SF_	125	0	4	96	192	0
STR	126	0	7
SUL	126	0	7	96	192	5
TAP	126	96	1
TAP	126	288	2
STR	127	0	0
SUR	127	0	0	96	192	2
TAP	127	96	6
TAP	127	288	5
HLD	128	0	4	192
TAP	128	192	3
TAP	128	288	4
TAP	129	0	2
TAP	129	0	5

T_REC_TAP	446
T_REC_BRK	3
T_REC_XTP	0
T_REC_HLD	38
T_REC_XHO	0
T_REC_STR	104
T_REC_BST	11
T_REC_XST	0
T_REC_TTP	0
T_REC_THO	0
T_REC_SLD	115
T_REC_ALL	717
T_NUM_TAP	550
T_NUM_BRK	14
T_NUM_HLD	38
T_NUM_SLD	115
T_NUM_ALL	717
T_JUDGE_TAP	564
T_JUDGE_HLD	132
T_JUDGE_SLD	115
T_JUDGE_ALL	811
TTM_EACHPAIRS	87
TTM_SCR_TAP	275000
TTM_SCR_BRK	36400
TTM_SCR_HLD	38000
TTM_SCR_SLD	172500
TTM_SCR_ALL	521900
TTM_SCR_S	504900
TTM_SCR_SS	520500
TTM_RAT_ACV	10026

