VERSION	0.00.00	1.03.00
FES_MODE	0
BPM_DEF	220.000	220.000	220.000	220.000
MET_DEF	4	4
RESOLUTION	384
CLK_DEF	384
COMPATIBLE_CODE	MA2

BPM	0	0	220.000

TAP	2	0	5
TAP	2	96	4
TAP	2	192	3
TAP	2	288	2
STR	3	0	5
SUR	3	0	5	96	192	2
TAP	4	96	2
TAP	4	192	3
TAP	4	192	4
TAP	4	288	5
TAP	5	0	3
TAP	5	0	4
TAP	5	96	2
TAP	5	192	5
TAP	5	288	1
STR	6	0	0
SI_	6	0	0	96	96	3
STR	6	0	7
SI_	6	0	7	96	96	4
TAP	7	0	2
TAP	7	96	3
TAP	7	192	4
TAP	7	288	5
STR	8	0	2
SUL	8	0	2	96	192	5
TAP	9	0	4
TAP	9	96	3
TAP	9	192	2
TAP	9	192	5
TAP	10	0	6
TAP	10	96	4
TAP	10	96	5
TAP	10	192	1
TAP	10	288	2
TAP	10	288	3
TAP	11	0	6
TAP	11	96	4
TAP	11	96	5
TAP	11	192	1
TAP	11	288	2
TAP	11	288	3
TAP	12	0	6
TAP	12	96	0
TAP	12	96	7
TAP	12	192	1
TAP	12	288	0
TAP	12	288	7
STR	13	0	6
SCL	13	0	6	96	192	2
TAP	14	0	1
TAP	14	96	2
TAP	14	96	3
TAP	14	192	6
TAP	14	288	4
TAP	14	288	5
TAP	15	0	1
TAP	15	96	2
TAP	15	96	3
TAP	15	192	6
TAP	15	288	4
TAP	15	288	5
TAP	16	0	1
TAP	16	96	0
TAP	16	96	7
TAP	16	192	6
TAP	16	288	0
TAP	16	288	7
STR	17	0	1
SCR	17	0	1	96	192	5
TAP	18	0	6
TAP	18	96	5
TAP	18	96	7
TAP	18	192	1
TAP	18	288	0
TAP	18	288	2
TAP	19	0	6
TAP	19	96	5
TAP	19	96	7
TAP	19	192	1
TAP	19	288	0
TAP	19	288	2
TAP	20	0	6
TAP	20	96	0
TAP	20	96	7
TAP	20	192	1
TAP	20	288	0
TAP	20	288	7
STR	21	0	6
SCL	21	0	6	96	192	2
TAP	22	0	1
TAP	22	96	0
TAP	22	96	2
TAP	22	192	6
TAP	22	288	5
TAP	22	288	7
TAP	23	0	1
TAP	23	96	0
TAP	23	96	2
TAP	23	192	6
TAP	23	288	5
TAP	23	288	7
TAP	24	0	1
TAP	24	96	0
TAP	24	96	7
TAP	24	192	6
TAP	24	288	0
TAP	24	288	7
TAP	25	0	1
TAP	25	96	6
TAP	25	192	2
TAP	25	192	5
TAP	26	0	3
TAP	26	0	6
TAP	26	96	5
TAP	26	144	4
TAP	26	192	5
TAP	27	0	1
TAP	27	0	4
TAP	27	96	2
TAP	27	144	3
TAP	27	192	2
TAP	28	0	3
TAP	28	0	6
TAP	28	96	5
TAP	28	144	4
TAP	28	192	5
TAP	28	288	2
TAP	28	336	3
TAP	29	0	2
TAP	29	96	4
TAP	29	192	3
TAP	29	192	4
TAP	30	0	2
TAP	30	0	7
TAP	30	96	1
TAP	30	144	0
TAP	30	192	1
TAP	31	0	0
TAP	31	0	5
TAP	31	96	6
TAP	31	144	7
TAP	31	192	6
TAP	32	0	0
TAP	32	0	7
TAP	32	96	1
TAP	32	192	0
TAP	32	192	2
TAP	32	288	3
TAP	32	288	7
TAP	33	0	6
TAP	33	96	5
TAP	33	96	7
TAP	33	192	0
TAP	33	192	4
TAP	34	0	2
TAP	34	96	1
STR	34	192	0
SI_	34	192	0	96	96	4
TAP	34	192	7
TAP	35	0	5
TAP	35	96	6
TAP	35	192	0
STR	35	192	7
SI_	35	192	7	96	96	3
TAP	36	0	2
TAP	36	96	1
STR	36	192	0
SI_	36	192	0	96	96	4
TAP	36	192	7
TAP	37	0	5
TAP	37	96	6
TAP	37	192	0
TAP	37	192	7
TAP	38	0	1
TAP	38	96	2
STR	38	192	3
SI_	38	192	3	96	96	7
TAP	38	192	4
TAP	39	0	6
TAP	39	96	5
TAP	39	192	3
STR	39	192	4
SI_	39	192	4	96	96	0
TAP	40	0	1
TAP	40	96	2
STR	40	192	3
SI_	40	192	3	96	96	7
TAP	40	192	4
TAP	41	0	6
TAP	41	96	5
TAP	41	192	3
TAP	41	192	4
HLD	42	0	1	144
HLD	42	144	2	144
TAP	42	288	3
HLD	43	0	6	144
HLD	43	144	5	144
TAP	43	288	4
HLD	44	0	0	144
HLD	44	144	1	144
STR	44	288	2
SUL	44	288	2	96	192	5
HLD	46	0	6	144
HLD	46	144	5	144
TAP	46	288	4
HLD	47	0	1	144
HLD	47	144	2	144
TAP	47	288	3
BST	48	0	1
SV_	48	0	1	96	96	2
BST	48	0	6
SV_	48	0	6	96	96	5
BST	49	0	0
SV_	49	0	0	96	96	3
BST	49	0	7
SV_	49	0	7	96	96	4
TAP	50	0	1
TAP	50	96	2
TAP	50	96	3
TAP	50	192	6
TAP	50	288	4
TAP	50	288	5
TAP	51	0	2
TAP	51	96	0
TAP	51	96	1
TAP	51	192	5
TAP	51	288	6
TAP	51	288	7
TAP	52	0	0
TAP	52	0	1
TAP	52	96	2
TAP	52	96	7
TAP	52	192	3
TAP	52	192	6
TAP	52	288	4
TAP	52	288	5
TAP	53	0	2
TAP	53	0	7
BRK	53	192	1
BRK	53	192	6
TAP	53	288	0
TAP	53	288	5
STR	54	0	0
SI_	54	0	0	96	96	4
STR	54	0	5
SI_	54	0	5	96	96	7
TAP	54	288	2
TAP	54	288	7
STR	55	0	2
SI_	55	0	2	96	96	0
STR	55	0	7
SI_	55	0	7	96	96	3
TAP	55	288	1
TAP	55	288	6
STR	56	0	1
SI_	56	0	1	96	96	4
STR	56	0	6
SI_	56	0	6	96	96	3
TAP	56	288	2
TAP	56	288	4
TAP	57	0	1
TAP	57	0	5
TAP	57	96	0
TAP	57	96	6
TAP	57	192	7
STR	57	240	7
SF_	57	240	7	96	96	3
TAP	58	288	3
TAP	58	288	4
TAP	59	0	5
TAP	59	96	4
TAP	59	96	6
TAP	59	192	2
TAP	59	288	1
TAP	59	288	3
TAP	60	0	6
TAP	60	96	0
TAP	60	96	5
TAP	60	192	1
TAP	60	288	2
TAP	60	288	7
TAP	61	0	6
TAP	61	96	2
TAP	61	96	5
TAP	61	192	3
TAP	61	288	2
TAP	61	288	7
STR	62	0	2
SI_	62	0	2	96	96	0
STR	62	0	7
SI_	62	0	7	96	96	3
TAP	62	288	0
TAP	62	288	5
STR	63	0	0
SI_	63	0	0	96	96	4
STR	63	0	5
SI_	63	0	5	96	96	7
TAP	63	288	1
TAP	63	288	6
STR	64	0	1
SI_	64	0	1	96	96	4
STR	64	0	6
SI_	64	0	6	96	96	3
TAP	64	288	3
TAP	64	288	5
TAP	65	0	2
TAP	65	0	6
TAP	65	96	1
TAP	65	96	7
TAP	65	192	0
STR	65	240	0
SF_	65	240	0	96	96	4
HLD	66	192	2	96
HLD	66	288	3	96
HLD	67	0	4	96
HLD	67	96	5	96
TAP	67	192	4
TAP	68	0	2
STR	68	0	5
SCR	68	0	5	96	288	2
TAP	69	288	2
TAP	69	336	3
TAP	70	0	2
TAP	70	96	5
TAP	70	144	4
TAP	70	192	5
TAP	70	288	3
TAP	70	288	4
TAP	71	0	1
TAP	71	0	6
TAP	71	96	1
TAP	71	96	6
HLD	72	0	2	192
TAP	72	96	3
HLD	72	192	5	192
TAP	72	288	4
HLD	73	0	0	96
TAP	73	96	7
TAP	73	192	1
TAP	73	192	6
TAP	74	0	1
TAP	74	0	4
TAP	74	96	2
TAP	74	144	3
TAP	74	192	2
TAP	74	288	4
TAP	75	0	3
TAP	75	0	6
TAP	75	96	5
TAP	75	144	4
TAP	75	192	5
TAP	75	288	3
STR	76	0	1
SI_	76	0	1	96	96	3
TAP	76	0	4
STR	76	192	7
SI_	76	192	7	96	96	5
STR	77	0	0
SI_	77	0	0	96	96	4
TAP	77	192	7
TAP	78	0	3
TAP	78	0	6
TAP	78	96	5
TAP	78	144	4
TAP	78	192	5
TAP	78	288	3
TAP	79	0	1
TAP	79	0	4
TAP	79	96	2
TAP	79	144	3
TAP	79	192	2
TAP	79	288	4
TAP	80	0	3
BRK	80	96	1
BRK	80	96	6
TAP	80	288	2
TAP	80	288	5
TAP	81	0	3
TAP	81	0	4
TAP	81	96	3
TAP	81	96	4
TAP	81	192	2
TAP	81	192	5
STR	82	0	2
SCL	82	0	2	96	192	7
TAP	82	0	3
TAP	83	0	4
STR	83	0	5
SCR	83	0	5	96	192	0
TAP	84	0	3
BRK	84	96	2
BRK	84	96	5
TAP	84	288	3
TAP	84	288	4
TAP	85	0	1
TAP	85	96	2
TAP	85	96	3
TAP	85	192	6
TAP	85	288	4
TAP	85	288	5
HLD	86	0	1	144
HLD	86	144	7	144
STR	86	288	5
SCL	86	288	5	96	288	0
TAP	88	0	7
TAP	88	96	5
TAP	88	96	6
TAP	88	192	0
TAP	88	288	1
TAP	88	288	2
TAP	89	0	6
TAP	89	96	4
TAP	89	96	5
TAP	89	192	1
TAP	89	288	2
TAP	89	288	3
TAP	90	0	5
TAP	90	96	4
TAP	90	96	6
TAP	90	192	2
TAP	90	288	1
TAP	90	288	3
TAP	91	0	6
TAP	91	96	5
TAP	91	96	7
TAP	91	192	0
TAP	91	192	4
TAP	91	288	1
TAP	91	288	3
TAP	94	288	2
TAP	94	288	5
TAP	95	0	2
TAP	95	0	5
TAP	95	96	2
TAP	95	96	5
TAP	95	192	3
TAP	95	240	4
TAP	95	288	3
TAP	95	336	4
TAP	96	0	3
BRK	96	96	1
BRK	96	96	6
TAP	96	288	3
TAP	96	288	4
TAP	97	0	2
TAP	97	96	1
TAP	97	96	3
TAP	97	192	5
TAP	97	288	4
TAP	97	288	6
TAP	98	0	1
TAP	98	96	2
TAP	98	96	7
TAP	98	192	6
TAP	98	288	0
TAP	98	288	5
TAP	99	0	1
TAP	99	96	2
TAP	99	96	5
TAP	99	192	4
TAP	99	288	0
TAP	99	288	5
STR	100	0	0
SI_	100	0	0	96	96	4
STR	100	0	5
SI_	100	0	5	96	96	7
TAP	100	288	2
TAP	100	288	7
STR	101	0	2
SI_	101	0	2	96	96	0
STR	101	0	7
SI_	101	0	7	96	96	3
TAP	101	288	1
TAP	101	288	6
STR	102	0	1
SI_	102	0	1	96	96	4
STR	102	0	6
SI_	102	0	6	96	96	3
TAP	102	288	2
TAP	102	288	4
TAP	103	0	1
TAP	103	0	5
TAP	103	96	0
TAP	103	96	6
TAP	103	192	7
STR	103	240	7
SF_	103	240	7	96	96	3
HLD	104	192	5	96
HLD	104	288	4	96
HLD	105	0	3	96
HLD	105	96	2	96
TAP	105	192	3
STR	106	0	2
SCL	106	0	2	96	288	5
TAP	106	0	5
TAP	107	288	0
TAP	107	288	7
STR	108	0	0
SI_	108	0	0	96	96	3
STR	108	0	7
SI_	108	0	7	96	96	4
TAP	109	0	6
TAP	109	96	0
TAP	109	96	7
TAP	109	192	1
TAP	109	288	0
TAP	109	288	7
STR	110	0	0
SI_	110	0	0	96	96	4
STR	110	0	7
SI_	110	0	7	96	96	5
TAP	110	288	0
TAP	110	288	7
STR	111	0	0
SI_	111	0	0	96	96	2
STR	111	0	7
SI_	111	0	7	96	96	3
TAP	111	288	5
TAP	111	336	4
TAP	112	0	5
TAP	112	96	2
TAP	112	144	3
TAP	112	192	2
TAP	112	288	3
TAP	112	288	4
TAP	113	0	1
TAP	113	0	6
TAP	113	96	1
TAP	113	96	6
TAP	114	0	5
TAP	114	96	4
TAP	114	96	6
TAP	114	192	2
TAP	114	288	1
TAP	114	288	3
TAP	115	0	6
TAP	115	96	5
TAP	115	96	7
TAP	115	192	1
TAP	115	288	0
TAP	115	288	2
TAP	116	0	6
TAP	116	96	0
TAP	116	96	7
TAP	116	192	1
TAP	116	288	0
TAP	116	288	7
STR	117	0	6
SI_	117	0	6	96	96	3
TAP	117	192	2
TAP	118	0	2
TAP	118	96	1
TAP	118	96	3
TAP	118	192	5
TAP	118	288	4
TAP	118	288	6
TAP	119	0	1
TAP	119	96	0
TAP	119	96	2
TAP	119	192	6
TAP	119	288	5
TAP	119	288	7
TAP	120	0	1
TAP	120	96	0
TAP	120	96	7
TAP	120	192	6
TAP	120	288	0
TAP	120	288	7
TAP	121	0	2
TAP	121	0	3
TAP	121	96	4
TAP	121	96	5
TAP	121	192	1
TAP	121	192	6
STR	122	0	3
SCL	122	0	3	96	192	0
TAP	122	0	4
TAP	123	0	3
STR	123	0	4
SCR	123	0	4	96	192	7
STR	124	0	2
SCL	124	0	2	96	192	7
TAP	124	0	3
TAP	125	0	4
STR	125	0	5
SCR	125	0	5	96	192	0
TAP	126	0	2
STR	126	96	0
SI_	126	96	0	96	96	4
STR	126	96	1
SI_	126	96	1	96	96	3
TAP	127	0	5
STR	127	96	6
SI_	127	96	6	96	96	4
STR	127	96	7
SI_	127	96	7	96	96	3
TAP	128	0	0
TAP	128	96	1
TAP	128	96	2
TAP	128	192	7
TAP	128	288	5
TAP	128	288	6
BST	129	0	0
SI_	129	0	0	96	96	3
BST	129	0	7
SI_	129	0	7	96	96	4

T_REC_TAP	447
T_REC_BRK	8
T_REC_XTP	0
T_REC_HLD	23
T_REC_XHO	0
T_REC_STR	58
T_REC_BST	6
T_REC_XST	0
T_REC_TTP	0
T_REC_THO	0
T_REC_SLD	64
T_REC_ALL	606
T_NUM_TAP	505
T_NUM_BRK	14
T_NUM_HLD	23
T_NUM_SLD	64
T_NUM_ALL	606
T_JUDGE_TAP	519
T_JUDGE_HLD	62
T_JUDGE_SLD	64
T_JUDGE_ALL	645
TTM_EACHPAIRS	168
TTM_SCR_TAP	252500
TTM_SCR_BRK	36400
TTM_SCR_HLD	23000
TTM_SCR_SLD	96000
TTM_SCR_ALL	407900
TTM_SCR_S	394350
TTM_SCR_SS	406500
TTM_RAT_ACV	10034

