VERSION	0.00.00	1.03.00
FES_MODE	0
BPM_DEF	220.000	220.000	220.000	220.000
MET_DEF	4	4
RESOLUTION	384
CLK_DEF	384
COMPATIBLE_CODE	MA2

BPM	0	0	220.000

HLD	2	0	2	192
TAP	2	192	3
HLD	3	0	5	192
TAP	3	192	4
HLD	4	0	2	192
HLD	4	192	3	192
HLD	5	0	4	192
TAP	5	192	5
HLD	6	0	5	192
TAP	6	192	4
HLD	7	0	2	192
TAP	7	192	3
TAP	8	0	4
TAP	8	0	5
TAP	8	192	2
TAP	8	192	3
TAP	9	0	4
TAP	9	0	6
TAP	9	192	1
TAP	9	192	3
TAP	10	0	5
TAP	10	96	5
TAP	10	192	4
TAP	11	0	2
TAP	11	96	2
TAP	11	192	3
TAP	12	0	6
TAP	12	96	6
TAP	12	192	4
TAP	13	0	1
TAP	13	96	1
TAP	13	192	3
TAP	14	0	6
TAP	14	96	6
TAP	14	192	3
TAP	14	192	4
TAP	15	0	1
TAP	15	96	1
TAP	15	192	3
TAP	15	192	4
TAP	16	0	6
TAP	16	0	7
TAP	16	192	0
TAP	16	192	1
TAP	17	0	5
TAP	17	0	7
TAP	17	192	0
TAP	17	192	2
TAP	18	0	6
TAP	18	96	6
TAP	18	192	7
TAP	19	0	1
TAP	19	96	1
TAP	19	192	0
TAP	20	0	5
TAP	20	96	5
TAP	20	192	7
TAP	21	0	2
TAP	21	96	2
TAP	21	192	0
TAP	22	0	5
TAP	22	96	5
TAP	22	192	0
TAP	22	192	7
TAP	23	0	2
TAP	23	96	2
TAP	23	192	0
TAP	23	192	7
TAP	24	0	1
TAP	24	0	6
TAP	24	192	2
TAP	24	192	5
TAP	25	0	3
TAP	25	96	3
TAP	25	192	4
TAP	25	288	4
HLD	26	0	3	192
TAP	26	192	4
HLD	27	0	5	192
TAP	27	192	4
HLD	28	0	2	192
TAP	28	192	3
TAP	29	0	1
TAP	29	0	4
TAP	29	192	0
TAP	29	192	5
HLD	30	0	6	192
TAP	30	192	7
HLD	31	0	1	192
TAP	31	192	0
TAP	32	0	2
TAP	32	96	3
TAP	32	192	4
TAP	32	192	5
TAP	33	0	5
TAP	33	96	4
TAP	33	192	2
TAP	33	192	3
TAP	34	0	1
TAP	34	96	1
TAP	34	192	0
TAP	35	0	6
TAP	35	96	6
TAP	35	192	7
TAP	36	0	2
TAP	36	96	2
TAP	36	192	0
TAP	37	0	5
TAP	37	96	5
TAP	37	192	7
TAP	38	0	1
TAP	38	96	1
TAP	38	192	0
TAP	38	192	2
TAP	39	0	6
TAP	39	96	6
TAP	39	192	5
TAP	39	192	7
TAP	40	0	1
TAP	40	96	1
TAP	40	192	7
TAP	40	288	7
TAP	41	0	0
TAP	41	96	0
TAP	41	192	6
TAP	41	288	6
STR	42	0	0
SI_	42	0	0	96	192	3
STR	43	0	7
SI_	43	0	7	96	192	4
STR	44	0	1
SI_	44	0	1	96	192	5
STR	45	0	6
SI_	45	0	6	96	192	2
STR	46	0	0
SCR	46	0	0	96	192	3
STR	47	0	7
SCL	47	0	7	96	192	4
TAP	48	0	2
TAP	48	96	2
TAP	48	192	1
TAP	48	192	3
TAP	49	0	5
TAP	49	96	5
TAP	49	192	4
TAP	49	192	6
TAP	50	0	3
TAP	50	96	3
TAP	50	192	4
TAP	50	288	4
TAP	51	0	3
TAP	51	0	4
TAP	51	192	1
TAP	51	192	6
TAP	52	0	0
TAP	52	0	7
TAP	52	96	0
TAP	52	96	7
TAP	52	192	0
TAP	52	192	7
TAP	52	288	0
TAP	52	288	7
BRK	53	0	0
BRK	53	0	7
TAP	53	192	2
TAP	53	192	5
TAP	54	0	0
TAP	54	96	1
TAP	54	192	2
TAP	54	192	3
TAP	55	0	4
TAP	55	96	5
TAP	55	192	6
TAP	55	192	7
TAP	56	0	0
TAP	56	96	0
TAP	56	192	1
TAP	56	288	1
TAP	57	0	2
TAP	57	96	2
TAP	57	192	1
TAP	57	192	3
TAP	58	0	7
TAP	58	96	6
TAP	58	192	4
TAP	58	192	5
TAP	59	0	3
TAP	59	96	2
TAP	59	192	0
TAP	59	192	1
TAP	60	0	7
TAP	60	96	7
TAP	60	192	6
TAP	60	288	6
TAP	61	0	5
TAP	61	96	5
TAP	61	192	4
TAP	61	192	6
TAP	62	0	1
TAP	62	96	0
TAP	62	192	6
TAP	62	192	7
TAP	63	0	5
TAP	63	96	4
TAP	63	192	2
TAP	63	192	3
TAP	64	0	1
TAP	64	96	1
TAP	64	192	0
TAP	64	288	0
TAP	65	0	7
TAP	65	96	7
TAP	65	192	1
TAP	65	192	5
TAP	66	0	6
TAP	66	96	7
TAP	66	192	0
TAP	66	192	1
TAP	67	0	2
TAP	67	96	3
TAP	67	192	4
TAP	67	192	5
TAP	68	0	6
TAP	68	96	6
TAP	68	192	7
TAP	68	288	7
TAP	69	0	0
TAP	69	96	0
TAP	69	192	2
TAP	69	192	6
STR	70	0	0
SCR	70	0	0	96	192	3
STR	70	0	7
SCL	70	0	7	96	192	4
TAP	71	0	1
TAP	71	0	6
BRK	71	96	1
BRK	71	96	6
STR	72	0	3
SI_	72	0	3	96	192	7
STR	73	0	4
SI_	73	0	4	96	192	0
TAP	74	0	2
TAP	74	96	2
TAP	74	192	0
TAP	75	0	5
TAP	75	96	5
TAP	75	192	7
TAP	76	0	1
TAP	76	96	1
TAP	76	192	0
TAP	77	0	6
TAP	77	96	6
TAP	77	192	7
TAP	78	0	2
TAP	78	96	2
TAP	78	192	3
TAP	79	0	5
TAP	79	96	5
TAP	79	192	4
TAP	80	0	2
TAP	80	0	3
TAP	80	192	4
TAP	80	192	5
TAP	81	0	3
TAP	81	96	3
TAP	81	192	4
TAP	81	288	4
STR	82	0	2
SCL	82	0	2	96	192	7
STR	83	0	5
SCR	83	0	5	96	192	0
TAP	84	0	1
TAP	84	96	1
TAP	84	192	2
TAP	84	288	2
TAP	85	0	3
TAP	85	96	3
TAP	85	192	4
TAP	85	192	5
STR	86	0	6
SCL	86	0	6	96	192	3
STR	87	0	1
SCR	87	0	1	96	192	4
TAP	88	0	6
TAP	88	96	6
TAP	88	192	5
TAP	88	288	5
TAP	89	0	4
TAP	89	96	4
TAP	89	192	2
TAP	89	192	3
TAP	90	0	4
TAP	90	0	5
TAP	90	192	2
TAP	90	192	3
TAP	91	0	4
TAP	91	192	3
HLD	92	0	5	384
HLD	93	0	4	384
HLD	94	0	3	384
TAP	95	0	2
TAP	95	192	0
TAP	95	288	7
TAP	96	0	0
BRK	96	96	7
STR	97	0	1
SCR	97	0	1	96	192	4
STR	98	0	6
SCL	98	0	6	96	192	3
STR	99	0	3
SI_	99	0	3	96	192	0
STR	99	0	4
SI_	99	0	4	96	192	7
TAP	100	0	1
TAP	100	96	0
TAP	100	192	2
TAP	100	192	7
TAP	101	0	6
TAP	101	96	7
TAP	101	192	0
TAP	101	192	5
TAP	102	0	1
TAP	102	96	1
TAP	102	192	0
TAP	102	288	0
TAP	103	0	7
TAP	103	96	7
TAP	103	192	1
TAP	103	192	5
TAP	104	0	6
TAP	104	96	7
TAP	104	192	0
TAP	104	192	5
TAP	105	0	1
TAP	105	96	0
TAP	105	192	2
TAP	105	192	7
TAP	106	0	6
TAP	106	96	6
TAP	106	192	7
TAP	106	288	7
TAP	107	0	0
TAP	107	96	0
TAP	107	192	2
TAP	107	192	6
STR	108	0	4
SI_	108	0	4	96	192	1
STR	108	0	5
SI_	108	0	5	96	192	0
TAP	109	0	2
TAP	109	0	7
TAP	109	192	4
TAP	109	192	5
STR	110	0	2
SI_	110	0	2	96	192	7
STR	110	0	3
SI_	110	0	3	96	192	6
TAP	111	0	0
TAP	111	0	5
TAP	111	192	2
TAP	111	192	3
STR	112	0	3
SCL	112	0	3	96	192	0
STR	112	0	4
SCR	112	0	4	96	192	7
TAP	113	0	1
TAP	113	0	6
TAP	113	96	1
TAP	113	96	6
TAP	113	192	2
TAP	113	192	5
TAP	113	288	2
TAP	113	288	5
TAP	114	0	3
TAP	114	96	3
TAP	114	192	4
TAP	114	288	4
TAP	115	0	2
TAP	115	96	3
TAP	115	192	1
TAP	115	192	4
TAP	116	0	4
TAP	116	96	4
TAP	116	192	3
TAP	116	288	3
TAP	117	0	5
TAP	117	96	4
TAP	117	192	3
TAP	117	192	6
TAP	118	0	1
TAP	118	96	0
TAP	118	192	2
TAP	118	192	7
TAP	119	0	6
TAP	119	96	7
TAP	119	192	0
TAP	119	192	5
TAP	120	0	1
TAP	120	96	1
TAP	120	192	4
TAP	120	288	4
TAP	121	0	3
TAP	121	96	3
TAP	121	192	6
TAP	121	288	6
STR	122	0	1
SUR	122	0	1	96	192	5
TAP	123	0	6
TAP	123	0	7
TAP	123	192	1
TAP	123	192	4
STR	124	0	6
SUL	124	0	6	96	192	2
TAP	125	0	0
TAP	125	0	1
TAP	125	192	3
TAP	125	192	6
TAP	126	0	2
TAP	126	96	2
TAP	126	192	3
TAP	126	192	4
TAP	127	0	5
TAP	127	96	5
TAP	127	192	3
TAP	127	192	4
TAP	128	0	0
TAP	128	0	2
TAP	128	192	5
TAP	128	192	7
BRK	129	0	3
BRK	129	0	4

T_REC_TAP	358
T_REC_BRK	7
T_REC_XTP	0
T_REC_HLD	15
T_REC_XHO	0
T_REC_STR	26
T_REC_BST	0
T_REC_XST	0
T_REC_TTP	0
T_REC_THO	0
T_REC_SLD	26
T_REC_ALL	432
T_NUM_TAP	384
T_NUM_BRK	7
T_NUM_HLD	15
T_NUM_SLD	26
T_NUM_ALL	432
T_JUDGE_TAP	391
T_JUDGE_HLD	72
T_JUDGE_SLD	26
T_JUDGE_ALL	489
TTM_EACHPAIRS	82
TTM_SCR_TAP	192000
TTM_SCR_BRK	18200
TTM_SCR_HLD	15000
TTM_SCR_SLD	39000
TTM_SCR_ALL	264200
TTM_SCR_S	255600
TTM_SCR_SS	263500
TTM_RAT_ACV	10026

