VERSION	0.00.00	1.03.00
FES_MODE	0
BPM_DEF	220.000	220.000	220.000	220.000
MET_DEF	4	4
RESOLUTION	384
CLK_DEF	384
COMPATIBLE_CODE	MA2

BPM	0	0	220.000

TAP	10	0	0
TAP	10	192	0
TAP	11	0	0
TAP	12	0	1
TAP	12	192	1
TAP	13	0	1
TAP	14	0	2
TAP	14	192	2
TAP	15	0	2
TAP	16	0	3
TAP	16	192	3
TAP	17	0	3
TAP	17	0	4
TAP	18	0	4
TAP	18	192	4
TAP	19	0	4
TAP	20	0	5
TAP	20	192	5
TAP	21	0	5
TAP	22	0	6
TAP	22	192	6
TAP	23	0	6
TAP	24	0	7
TAP	24	192	7
TAP	25	0	0
TAP	25	0	7
TAP	26	0	7
TAP	26	192	7
TAP	27	0	6
TAP	27	192	6
HLD	28	0	5	384
TAP	30	0	4
TAP	30	192	4
TAP	31	0	3
TAP	31	192	3
HLD	32	0	2	384
TAP	34	0	1
TAP	34	192	1
TAP	35	0	0
TAP	35	192	0
HLD	36	0	7	384
TAP	38	0	0
TAP	38	192	0
TAP	39	0	1
TAP	39	192	1
HLD	40	0	2	384
TAP	42	0	3
TAP	42	192	3
TAP	43	0	3
TAP	43	0	4
TAP	44	0	5
TAP	44	192	5
TAP	45	0	4
TAP	45	0	5
TAP	46	0	6
TAP	46	192	6
TAP	47	0	6
TAP	47	0	7
TAP	48	0	0
TAP	48	192	0
TAP	49	0	7
TAP	49	192	7
TAP	50	0	0
TAP	50	192	7
TAP	51	0	0
TAP	51	192	7
TAP	52	0	0
TAP	52	0	7
TAP	52	192	0
TAP	52	192	7
BRK	53	0	0
BRK	53	0	7
TAP	54	0	7
TAP	54	96	7
TAP	54	192	7
TAP	55	0	6
TAP	55	96	6
TAP	55	192	6
TAP	56	0	5
TAP	56	96	5
TAP	56	192	5
TAP	57	0	4
TAP	57	96	4
TAP	57	192	4
TAP	58	0	3
TAP	58	96	3
TAP	58	192	3
TAP	59	0	2
TAP	59	96	2
TAP	59	192	2
TAP	60	0	0
TAP	60	0	1
TAP	60	192	0
TAP	60	192	1
TAP	61	0	0
TAP	61	0	1
TAP	62	0	0
TAP	62	96	0
TAP	62	192	0
TAP	63	0	1
TAP	63	96	1
TAP	63	192	1
TAP	64	0	2
TAP	64	96	2
TAP	64	192	2
TAP	65	0	3
TAP	65	96	3
TAP	65	192	3
TAP	66	0	4
TAP	66	96	4
TAP	66	192	4
TAP	67	0	5
TAP	67	96	5
TAP	67	192	5
TAP	68	0	6
TAP	68	0	7
TAP	68	192	6
TAP	68	192	7
TAP	69	0	6
TAP	69	0	7
TAP	70	0	7
TAP	70	96	7
TAP	70	192	7
TAP	71	0	0
TAP	71	96	0
TAP	71	192	0
BRK	72	0	0
BRK	72	0	7
TAP	74	0	0
TAP	74	192	0
TAP	75	0	1
TAP	75	192	1
HLD	76	0	2	384
TAP	78	0	3
TAP	78	192	3
TAP	79	0	4
TAP	79	192	4
HLD	80	0	5	384
TAP	82	0	6
TAP	82	0	7
TAP	83	0	0
TAP	83	0	1
TAP	84	0	7
TAP	84	192	7
TAP	85	0	6
TAP	85	192	6
TAP	86	0	4
TAP	86	0	5
TAP	87	0	2
TAP	87	0	3
TAP	88	0	1
TAP	88	192	1
TAP	89	0	0
TAP	89	192	0
HLD	90	0	7	384
STR	92	0	0
SI_	92	0	0	96	288	3
STR	94	0	7
SI_	94	0	7	96	288	4
TAP	96	0	0
TAP	96	192	0
TAP	97	0	1
TAP	97	192	1
TAP	98	0	2
TAP	98	192	2
TAP	99	0	3
TAP	99	0	4
TAP	100	0	4
TAP	100	192	4
TAP	101	0	5
TAP	101	192	5
TAP	102	0	6
TAP	102	192	6
TAP	103	0	0
TAP	103	0	7
TAP	104	0	7
TAP	104	192	7
TAP	105	0	6
TAP	105	192	6
TAP	106	0	5
TAP	106	192	5
TAP	107	0	3
TAP	107	0	4
STR	108	0	3
SI_	108	0	3	96	288	0
STR	110	0	4
SI_	110	0	4	96	288	7
TAP	112	0	0
TAP	112	192	7
BRK	113	0	0
BRK	113	0	7
TAP	114	0	0
TAP	114	192	0
TAP	115	0	1
TAP	115	192	1
TAP	116	0	2
TAP	116	192	2
TAP	117	0	3
TAP	117	192	3
TAP	118	0	4
TAP	118	192	4
TAP	119	0	5
TAP	119	192	5
TAP	120	0	6
TAP	120	192	6
TAP	121	0	0
TAP	121	0	7
TAP	122	0	0
TAP	122	0	7
TAP	123	0	0
TAP	123	0	7
TAP	124	0	1
TAP	124	0	6
TAP	125	0	1
TAP	125	0	6
TAP	126	0	2
TAP	126	0	5
TAP	127	0	2
TAP	127	0	5
TAP	128	0	3
TAP	128	0	4
TAP	128	192	3
TAP	128	192	4
BRK	129	0	3
BRK	129	0	4

T_REC_TAP	202
T_REC_BRK	8
T_REC_XTP	0
T_REC_HLD	7
T_REC_XHO	0
T_REC_STR	4
T_REC_BST	0
T_REC_XST	0
T_REC_TTP	0
T_REC_THO	0
T_REC_SLD	4
T_REC_ALL	225
T_NUM_TAP	206
T_NUM_BRK	8
T_NUM_HLD	7
T_NUM_SLD	4
T_NUM_ALL	225
T_JUDGE_TAP	214
T_JUDGE_HLD	56
T_JUDGE_SLD	4
T_JUDGE_ALL	274
TTM_EACHPAIRS	33
TTM_SCR_TAP	103000
TTM_SCR_BRK	20800
TTM_SCR_HLD	7000
TTM_SCR_SLD	6000
TTM_SCR_ALL	136800
TTM_SCR_S	131950
TTM_SCR_SS	136000
TTM_RAT_ACV	10058

