VERSION	0.00.00	1.03.00
FES_MODE	0
BPM_DEF	180.000	180.000	180.000	180.000
MET_DEF	4	4
RESOLUTION	384
CLK_DEF	384
COMPATIBLE_CODE	MA2

BPM	0	0	180.000
MET	0	0	4	4

TAP	1	48	3
TAP	1	144	4
TAP	1	240	2
TAP	1	336	5
TAP	2	48	1
TAP	2	144	6
TAP	2	192	0
TAP	2	192	7
TAP	2	240	0
TAP	2	240	7
TAP	2	288	0
TAP	2	288	7
TAP	3	48	1
TAP	3	144	6
TAP	3	240	2
TAP	3	336	5
HLD	4	0	3	192
HLD	4	0	4	192
TAP	4	240	2
TAP	4	240	5
TAP	4	288	2
TAP	4	288	5
TAP	5	0	1
TAP	5	48	0
TAP	5	96	1
TAP	5	144	6
TAP	5	192	7
TAP	5	240	6
TAP	5	288	2
TAP	5	336	3
TAP	6	0	2
TAP	6	48	5
TAP	6	96	4
TAP	6	144	5
STR	6	192	0
SI_	6	192	0	96	48	4
TAP	6	240	7
TAP	6	288	0
TAP	7	0	6
TAP	7	48	4
TAP	7	96	6
TAP	7	144	1
TAP	7	192	3
TAP	7	240	1
TAP	7	288	5
TAP	7	336	7
TAP	8	0	5
TAP	8	48	2
TAP	8	96	0
TAP	8	144	2
TAP	8	192	4
TAP	8	192	5
TAP	8	240	3
TAP	8	240	6
TAP	8	288	2
TAP	8	288	7
TAP	9	0	6
TAP	9	48	7
TAP	9	96	5
TAP	9	144	1
TAP	9	192	0
TAP	9	240	2
TAP	9	288	5
TAP	9	336	4
TAP	10	0	6
TAP	10	48	2
TAP	10	96	3
TAP	10	144	1
STR	10	192	7
SI_	10	192	7	96	48	3
TAP	10	240	0
TAP	10	288	7
TAP	11	0	2
TAP	11	48	6
TAP	11	96	0
TAP	11	144	5
TAP	11	192	1
TAP	11	240	7
TAP	11	288	3
TAP	11	336	4
HLD	12	0	2	96
HLD	12	0	5	96
TAP	12	144	1
TAP	12	144	6
TAP	12	192	1
TAP	12	192	6
TAP	12	288	0
TAP	12	288	7
STR	13	0	0
SCR	13	0	0	96	96	2
STR	13	96	2
SCR	13	96	2	96	96	4
STR	13	192	4
SCR	13	192	4	96	96	6
STR	13	288	6
SCR	13	288	6	96	96	0
STR	14	0	0
SCR	14	0	0	96	96	3
STR	14	96	3
SCR	14	96	3	96	96	6
STR	14	192	6
SCR	14	192	6	96	96	1
STR	14	288	1
SCR	14	288	1	96	96	4
STR	15	0	4
SUL	15	0	4	96	96	0
STR	15	96	0
SUL	15	96	0	96	96	4
STR	15	192	4
SLL	15	192	4	96	96	0
STR	15	288	0
SLL	15	288	0	96	96	4
STR	16	0	4
SF_	16	0	4	96	96	0
STR	16	288	7
SCL	16	288	7	96	96	5
STR	17	0	5
SCL	17	0	5	96	96	3
STR	17	96	3
SCL	17	96	3	96	96	1
STR	17	192	1
SCL	17	192	1	96	96	7
STR	17	288	7
SCL	17	288	7	96	96	4
STR	18	0	4
SCL	18	0	4	96	96	1
STR	18	96	1
SCL	18	96	1	96	96	6
STR	18	192	6
SCL	18	192	6	96	96	3
STR	18	288	3
SUR	18	288	3	96	96	7
STR	19	0	7
SUR	19	0	7	96	96	3
STR	19	96	3
SLR	19	96	3	96	96	7
STR	19	192	7
SLR	19	192	7	96	96	3
STR	19	288	3
SF_	19	288	3	96	96	7
TAP	20	192	2
TAP	20	192	5
TAP	20	288	0
TAP	20	336	7
TAP	21	0	3
TAP	21	48	2
TAP	21	96	1
TAP	21	144	0
STR	21	192	6
SI_	21	192	6	96	48	2
TAP	21	240	7
TAP	21	288	6
TAP	22	0	7
TAP	22	48	6
TAP	22	96	5
TAP	22	144	4
STR	22	192	2
SI_	22	192	2	96	48	6
TAP	22	240	3
TAP	22	288	2
HLD	23	0	0	144
TAP	23	48	1
TAP	23	96	2
TAP	23	144	3
HLD	23	192	4	96
TAP	23	240	5
TAP	23	288	6
TAP	23	336	7
TAP	24	0	0
TAP	24	0	1
TAP	24	48	0
TAP	24	48	1
TAP	24	96	2
TAP	24	96	7
TAP	24	144	2
TAP	24	144	7
TAP	24	192	3
TAP	24	192	6
TAP	24	288	4
TAP	24	288	5
TAP	25	0	4
TAP	25	48	5
TAP	25	96	6
TAP	25	144	7
STR	25	192	1
SI_	25	192	1	96	48	5
TAP	25	240	0
TAP	25	288	1
TAP	26	0	0
TAP	26	48	1
TAP	26	96	2
TAP	26	144	3
STR	26	192	5
SI_	26	192	5	96	48	1
TAP	26	240	4
TAP	26	288	5
HLD	27	0	7	144
TAP	27	48	6
TAP	27	96	5
TAP	27	144	4
HLD	27	192	3	96
TAP	27	240	2
TAP	27	288	1
TAP	27	336	0
TAP	28	0	6
TAP	28	0	7
TAP	28	48	6
TAP	28	48	7
TAP	28	96	0
TAP	28	96	5
TAP	28	144	0
TAP	28	144	5
TAP	28	192	1
TAP	28	192	4
TAP	28	288	2
TAP	28	288	3
TAP	29	0	0
TAP	29	0	7
TAP	29	72	4
TAP	29	72	6
TAP	29	144	1
TAP	29	144	3
BRK	29	192	2
BRK	29	192	5
TAP	29	288	3
TAP	29	336	4
TAP	30	0	2
TAP	30	0	3
TAP	30	48	2
TAP	30	48	3
TAP	30	96	6
TAP	30	96	7
TAP	30	144	6
TAP	30	144	7
STR	30	192	0
SI_	30	192	0	96	48	5
STR	30	192	1
SI_	30	192	1	96	48	4
TAP	30	288	0
TAP	30	288	1
TAP	31	0	4
TAP	31	0	5
TAP	31	48	4
TAP	31	48	5
TAP	31	96	0
TAP	31	96	1
TAP	31	144	0
TAP	31	144	1
STR	31	192	2
SI_	31	192	2	96	48	7
STR	31	192	3
SI_	31	192	3	96	48	6
TAP	31	288	2
TAP	31	288	3
HLD	32	0	1	144
TAP	32	48	0
TAP	32	96	7
TAP	32	144	6
HLD	32	192	5	144
TAP	32	240	4
TAP	32	288	3
TAP	32	336	2
STR	33	0	1
SUR	33	0	1	96	48	5
STR	33	0	5
SUR	33	0	5	96	48	1
TAP	33	96	1
TAP	33	96	5
STR	33	192	0
SCL	33	192	0	96	48	5
STR	33	192	4
SCL	33	192	4	96	48	1
TAP	33	288	0
TAP	33	288	4
TAP	34	0	6
TAP	34	0	7
TAP	34	48	6
TAP	34	48	7
TAP	34	96	2
TAP	34	96	3
TAP	34	144	2
TAP	34	144	3
STR	34	192	4
SI_	34	192	4	96	48	1
STR	34	192	5
SI_	34	192	5	96	48	0
TAP	34	288	4
TAP	34	288	5
TAP	35	0	0
TAP	35	0	1
TAP	35	48	0
TAP	35	48	1
TAP	35	96	4
TAP	35	96	5
TAP	35	144	4
TAP	35	144	5
STR	35	192	6
SI_	35	192	6	96	48	3
STR	35	192	7
SI_	35	192	7	96	48	2
TAP	35	288	6
TAP	35	288	7
HLD	36	0	2	144
TAP	36	48	1
TAP	36	96	0
TAP	36	144	7
HLD	36	192	6	144
TAP	36	240	5
TAP	36	288	4
TAP	36	336	3
STR	37	0	2
SUL	37	0	2	96	48	6
STR	37	0	6
SUL	37	0	6	96	48	2
TAP	37	96	2
TAP	37	96	6
STR	37	192	3
SCR	37	192	3	96	48	6
STR	37	192	7
SCR	37	192	7	96	48	2
TAP	37	288	3
TAP	37	288	7
TAP	38	0	1
TAP	38	24	0
TAP	38	48	1
TAP	38	72	0
TAP	38	96	1
TAP	38	144	2
TAP	38	144	7
STR	38	192	3
SI_	38	192	3	96	48	7
STR	38	192	6
SI_	38	192	6	96	48	4
TAP	38	288	3
TAP	38	288	6
TAP	39	0	6
TAP	39	24	7
TAP	39	48	6
TAP	39	72	7
TAP	39	96	6
TAP	39	144	0
TAP	39	144	5
STR	39	192	1
SI_	39	192	1	96	48	3
STR	39	192	4
SI_	39	192	4	96	48	0
TAP	39	288	1
TAP	39	288	4
TAP	40	0	2
TAP	40	24	3
TAP	40	48	2
TAP	40	72	3
TAP	40	96	2
TAP	40	144	1
TAP	40	144	4
STR	40	192	0
SI_	40	192	0	96	48	4
STR	40	192	5
SI_	40	192	5	96	48	7
TAP	40	288	0
TAP	40	288	5
TAP	41	0	5
TAP	41	24	4
TAP	41	48	5
TAP	41	72	4
TAP	41	96	5
TAP	41	144	3
TAP	41	144	6
STR	41	192	2
SI_	41	192	2	96	48	0
STR	41	192	7
SI_	41	192	7	96	48	3
TAP	41	288	2
TAP	41	288	7
TAP	42	0	1
TAP	42	24	0
TAP	42	48	1
TAP	42	72	0
TAP	42	96	2
TAP	42	120	7
TAP	42	144	2
TAP	42	168	7
TAP	42	192	3
TAP	42	192	6
TAP	42	240	4
TAP	42	240	5
BRK	42	288	3
BRK	42	288	6
TAP	43	0	6
TAP	43	24	7
TAP	43	48	6
TAP	43	72	7
TAP	43	96	5
TAP	43	120	0
TAP	43	144	5
TAP	43	168	0
TAP	43	192	1
TAP	43	192	4
TAP	43	240	2
TAP	43	240	3
BRK	43	288	1
BRK	43	288	4
TAP	44	0	0
TAP	44	24	7
TAP	44	48	0
TAP	44	72	7
TAP	44	96	1
TAP	44	120	6
TAP	44	144	1
TAP	44	168	6
TAP	44	192	2
TAP	44	216	5
TAP	44	240	2
TAP	44	264	5
TAP	44	288	3
TAP	44	312	4
TAP	44	336	3
TAP	44	360	4
STR	45	0	3
SF_	45	0	3	96	96	7
BRK	45	96	3
STR	46	0	1
SI_	46	0	1	96	48	4
STR	46	96	0
SI_	46	96	0	96	48	5
STR	46	192	7
SI_	46	192	7	96	48	2
STR	46	288	6
SI_	46	288	6	96	48	3
STR	47	0	1
SI_	47	0	1	96	48	5
STR	47	96	6
SI_	47	96	6	96	48	2
TAP	47	192	7
TAP	47	240	7
TAP	47	288	7
STR	48	0	6
SI_	48	0	6	96	48	3
STR	48	96	7
SI_	48	96	7	96	48	2
STR	48	192	0
SI_	48	192	0	96	48	5
STR	48	288	1
SI_	48	288	1	96	48	4
STR	49	0	6
SI_	49	0	6	96	48	2
STR	49	96	1
SI_	49	96	1	96	48	5
TAP	49	192	0
TAP	49	240	0
TAP	49	288	0
STR	50	0	2
SI_	50	0	2	96	48	7
STR	50	96	3
SI_	50	96	3	96	48	6
STR	50	192	4
SI_	50	192	4	96	48	1
STR	50	288	5
SI_	50	288	5	96	48	0
STR	51	0	2
SI_	51	0	2	96	48	6
STR	51	96	5
SI_	51	96	5	96	48	1
TAP	51	192	4
TAP	51	240	4
TAP	51	288	4
STR	52	0	5
SI_	52	0	5	96	48	0
STR	52	96	4
SI_	52	96	4	96	48	1
STR	52	192	3
SI_	52	192	3	96	48	6
STR	52	288	2
SI_	52	288	2	96	48	7
STR	53	0	5
SCL	53	0	5	96	192	6
HLD	54	0	4	144
TAP	54	0	5
TAP	54	72	7
TAP	54	144	1
TAP	54	240	2
TAP	54	240	3
TAP	54	288	1
TAP	54	288	4
HLD	55	0	0	144
TAP	55	0	1
TAP	55	72	3
TAP	55	144	5
TAP	55	240	6
TAP	55	240	7
TAP	55	288	0
TAP	55	288	5
TAP	56	0	2
HLD	56	0	3	144
TAP	56	72	0
TAP	56	144	6
TAP	56	240	4
TAP	56	240	5
TAP	56	288	3
TAP	56	288	6
TAP	57	0	6
HLD	57	0	7	144
TAP	57	72	4
TAP	57	144	2
TAP	57	240	0
TAP	57	240	1
TAP	57	288	2
TAP	57	288	7
HLD	58	0	6	144
TAP	58	0	7
TAP	58	72	5
TAP	58	144	3
TAP	58	240	0
TAP	58	240	2
TAP	58	288	1
TAP	58	288	7
TAP	59	0	0
HLD	59	0	1	144
TAP	59	72	2
TAP	59	144	4
TAP	59	240	5
TAP	59	240	7
TAP	59	288	0
TAP	59	288	6
TAP	60	0	4
HLD	60	0	5	144
TAP	60	72	6
TAP	60	144	0
TAP	60	240	1
TAP	60	240	3
TAP	60	288	2
TAP	60	288	4
HLD	61	0	2	144
TAP	61	0	3
TAP	61	72	1
TAP	61	144	7
TAP	61	240	4
TAP	61	240	6
TAP	61	288	3
TAP	61	288	5
BST	62	0	0
SXL	62	0	0	96	192	3
BST	62	0	7
SXR	62	0	7	96	192	4
TAP	63	0	1
TAP	63	0	6
HLD	63	96	2	96
HLD	63	96	5	96
TAP	63	288	3
TAP	63	288	4
BRK	64	0	7
TAP	64	96	5
TAP	64	192	3
TAP	64	288	1
BRK	65	0	6
TAP	65	96	4
TAP	65	192	2
TAP	65	288	0
BRK	66	0	5
TAP	66	48	5
TAP	66	96	5
TAP	66	144	5
TAP	66	192	2
TAP	66	240	2
TAP	66	288	2
TAP	66	336	2
BRK	67	0	4
TAP	67	48	4
TAP	67	96	3
TAP	67	144	3
TAP	67	192	6
TAP	67	240	6
TAP	67	288	1
TAP	67	336	1
BRK	68	0	3
TAP	68	0	5
TAP	68	48	3
TAP	68	48	5
TAP	68	96	1
TAP	68	96	7
TAP	68	144	1
TAP	68	144	7
BRK	68	192	2
TAP	68	192	4
TAP	68	240	2
TAP	68	240	4
TAP	68	288	0
TAP	68	288	6
TAP	68	336	0
TAP	68	336	6
BRK	69	0	1
TAP	69	24	7
TAP	69	48	1
TAP	69	72	7
TAP	69	96	1
TAP	69	120	7
TAP	69	144	1
TAP	69	168	7
BRK	69	192	0
TAP	69	208	1
TAP	69	224	2
TAP	69	240	3
TAP	69	256	4
TAP	69	272	5
TAP	69	288	6
TAP	69	304	7
TAP	69	320	0
TAP	69	336	1
TAP	69	352	2
TAP	69	368	3
STR	70	0	4
SCR	70	0	4	96	192	3
TAP	71	0	0
TAP	71	0	7
TAP	71	72	1
TAP	71	72	3
TAP	71	144	4
TAP	71	144	6
BRK	71	192	2
BRK	71	192	5
TAP	71	288	3
TAP	71	336	4
TAP	72	0	5
TAP	72	0	7
TAP	72	48	6
TAP	72	96	1
TAP	72	96	7
TAP	72	144	0
STR	72	192	5
SCR	72	192	5	96	48	7
STR	72	192	7
SCR	72	192	7	96	48	1
TAP	72	288	5
TAP	72	288	7
TAP	73	0	0
TAP	73	0	2
TAP	73	48	1
TAP	73	96	0
TAP	73	96	6
TAP	73	144	4
STR	73	192	1
SCR	73	192	1	96	48	3
STR	73	192	3
SCR	73	192	3	96	48	5
TAP	73	288	1
TAP	73	288	3
STR	74	0	0
SI_	74	0	0	96	48	4
STR	74	0	7
SI_	74	0	7	96	48	5
BRK	74	96	0
BRK	74	96	7
STR	74	192	0
SI_	74	192	0	96	48	2
STR	74	192	7
SI_	74	192	7	96	48	3
BRK	74	288	0
BRK	74	288	7
TAP	75	0	4
TAP	75	0	5
TAP	75	48	4
TAP	75	48	5
TAP	75	96	2
TAP	75	96	3
TAP	75	144	2
TAP	75	144	3
STR	75	192	0
SI_	75	192	0	96	48	3
STR	75	192	7
SI_	75	192	7	96	48	4
BRK	75	288	0
BRK	75	288	7
TAP	76	0	4
TAP	76	0	6
TAP	76	48	5
TAP	76	96	2
TAP	76	96	4
TAP	76	144	3
STR	76	192	4
SCL	76	192	4	96	48	2
STR	76	192	6
SCL	76	192	6	96	48	4
TAP	76	288	4
TAP	76	288	6
TAP	77	0	1
TAP	77	0	3
TAP	77	48	2
TAP	77	96	3
TAP	77	96	5
TAP	77	144	7
STR	77	192	0
SCL	77	192	0	96	48	6
STR	77	192	2
SCL	77	192	2	96	48	0
TAP	77	288	0
TAP	77	288	2
STR	78	0	3
SI_	78	0	3	96	48	1
STR	78	0	4
SI_	78	0	4	96	48	0
BRK	78	96	3
BRK	78	96	4
STR	78	192	3
SI_	78	192	3	96	48	7
STR	78	192	4
SI_	78	192	4	96	48	6
BRK	78	288	3
BRK	78	288	4
TAP	79	0	0
TAP	79	0	1
TAP	79	48	0
TAP	79	48	1
TAP	79	96	6
TAP	79	96	7
TAP	79	144	6
TAP	79	144	7
STR	79	192	3
SI_	79	192	3	96	48	0
STR	79	192	4
SI_	79	192	4	96	48	7
BRK	79	288	3
BRK	79	288	4
TAP	80	0	2
TAP	80	0	7
TAP	80	48	1
TAP	80	72	0
TAP	80	96	1
TAP	80	120	0
TAP	80	144	1
STR	80	192	2
SI_	80	192	2	96	48	7
STR	80	192	6
SI_	80	192	6	96	48	3
TAP	80	288	2
TAP	80	288	6
TAP	81	0	0
TAP	81	0	5
TAP	81	48	6
TAP	81	72	7
TAP	81	96	6
TAP	81	120	7
TAP	81	144	6
STR	81	192	1
SI_	81	192	1	96	48	4
STR	81	192	5
SI_	81	192	5	96	48	0
TAP	81	288	1
TAP	81	288	5
TAP	82	0	1
TAP	82	0	4
TAP	82	48	2
TAP	82	72	3
TAP	82	96	2
TAP	82	120	3
TAP	82	144	2
STR	82	192	1
SI_	82	192	1	96	48	3
STR	82	192	5
SI_	82	192	5	96	48	0
TAP	82	288	1
TAP	82	288	5
TAP	83	0	3
TAP	83	0	6
TAP	83	48	5
TAP	83	72	4
TAP	83	96	5
TAP	83	120	4
TAP	83	144	5
STR	83	192	2
SI_	83	192	2	96	48	7
STR	83	192	6
SI_	83	192	6	96	48	4
TAP	83	288	2
TAP	83	288	6
TAP	84	0	1
TAP	84	24	0
TAP	84	48	2
TAP	84	72	7
TAP	84	96	3
TAP	84	120	6
TAP	84	144	4
TAP	84	168	5
TAP	84	192	3
TAP	84	192	6
TAP	84	240	2
TAP	84	240	7
BRK	84	288	0
BRK	84	288	1
TAP	85	0	6
TAP	85	24	7
TAP	85	48	5
TAP	85	72	0
TAP	85	96	4
TAP	85	120	1
TAP	85	144	3
TAP	85	168	2
TAP	85	192	1
TAP	85	192	4
TAP	85	240	0
TAP	85	240	5
BRK	85	288	6
BRK	85	288	7
TAP	86	0	4
TAP	86	0	5
TAP	86	48	3
TAP	86	48	6
TAP	86	96	2
TAP	86	96	7
TAP	86	144	0
TAP	86	144	1
TAP	86	192	2
TAP	86	192	3
TAP	86	240	1
TAP	86	240	4
TAP	86	288	0
TAP	86	288	5
TAP	86	336	6
TAP	86	336	7
TAP	87	0	3
TAP	87	24	4
TAP	87	48	3
TAP	87	72	4
TAP	87	96	2
TAP	87	120	5
TAP	87	144	2
TAP	87	168	5
TAP	87	192	1
TAP	87	216	6
TAP	87	240	1
TAP	87	264	6
TAP	87	288	0
TAP	87	312	7
TAP	87	336	0
TAP	87	360	7
TAP	88	0	1
HLD	88	48	1	96
HLD	88	144	3	96
HLD	88	240	5	96
HLD	88	336	7	96
HLD	89	48	2	96
TAP	89	144	4
STR	89	192	3
SI_	89	192	3	96	48	0
SI_	89	192	3	96	48	6
TAP	89	240	3
HLD	90	48	5	96
HLD	90	144	7	96
HLD	90	240	1	96
HLD	90	336	3	96
HLD	91	48	6	96
TAP	91	144	0
STR	91	192	7
SI_	91	192	7	96	48	2
SI_	91	192	7	96	48	4
TAP	91	240	7
HLD	92	48	3	96
HLD	92	144	4	96
HLD	92	240	5	96
HLD	92	336	6	96
HLD	93	48	1	96
TAP	93	144	0
STR	93	192	2
SI_	93	192	2	96	48	5
SUL	93	192	2	96	48	6
TAP	93	240	2
HLD	94	48	4	96
HLD	94	144	3	96
HLD	94	240	2	96
HLD	94	336	1	96
HLD	95	48	6	96
TAP	95	144	7
STR	95	192	5
SI_	95	192	5	96	48	2
SUR	95	192	5	96	48	1
TAP	95	240	5
TAP	96	48	2
TAP	96	48	4
TAP	96	144	0
TAP	96	144	6
STR	96	192	1
SXL	96	192	1	96	48	3
TAP	96	240	7
TAP	96	288	1
STR	97	0	2
SUL	97	0	2	96	48	6
STR	97	0	6
SUL	97	0	6	96	48	2
STR	97	192	3
SCR	97	192	3	96	72	6
STR	97	192	7
SCR	97	192	7	96	72	2
TAP	98	48	3
TAP	98	48	5
TAP	98	144	1
TAP	98	144	7
STR	98	192	6
SXR	98	192	6	96	48	4
TAP	98	240	0
TAP	98	288	6
STR	99	0	1
SUR	99	0	1	96	48	5
STR	99	0	5
SUR	99	0	5	96	48	1
STR	99	192	0
SCL	99	192	0	96	72	5
STR	99	192	4
SCL	99	192	4	96	72	1
TAP	100	48	5
TAP	100	144	6
STR	100	192	0
SI_	100	192	0	96	48	4
TAP	100	240	7
TAP	100	288	0
STR	101	0	2
SCR	101	0	2	96	72	5
STR	101	0	5
SCR	101	0	5	96	72	0
STR	101	192	2
SCL	101	192	2	96	72	7
STR	101	192	7
SCL	101	192	7	96	72	4
TAP	102	48	2
TAP	102	144	1
STR	102	192	7
SI_	102	192	7	96	48	3
TAP	102	240	0
TAP	102	288	7
HLD	103	0	1	96
HLD	103	0	6	96
TAP	103	144	0
TAP	103	144	7
STR	103	192	0
SI_	103	192	0	96	48	3
STR	103	192	7
SI_	103	192	7	96	48	4
BRK	103	288	0
BRK	103	288	7

T_REC_TAP	588
T_REC_BRK	35
T_REC_XTP	0
T_REC_HLD	44
T_REC_XHO	0
T_REC_STR	131
T_REC_BST	2
T_REC_XST	0
T_REC_TTP	0
T_REC_THO	0
T_REC_SLD	137
T_REC_ALL	937
T_NUM_TAP	719
T_NUM_BRK	37
T_NUM_HLD	44
T_NUM_SLD	137
T_NUM_ALL	937
T_JUDGE_TAP	756
T_JUDGE_HLD	106
T_JUDGE_SLD	137
T_JUDGE_ALL	999
TTM_EACHPAIRS	196
TTM_SCR_TAP	359500
TTM_SCR_BRK	96200
TTM_SCR_HLD	44000
TTM_SCR_SLD	205500
TTM_SCR_ALL	705200
TTM_SCR_S	680500
TTM_SCR_SS	701500
TTM_RAT_ACV	10052

