VERSION	0.00.00	1.03.00
FES_MODE	0
BPM_DEF	180.000	180.000	180.000	180.000
MET_DEF	4	4
RESOLUTION	384
CLK_DEF	384
COMPATIBLE_CODE	MA2

BPM	0	0	180.000
MET	0	0	4	4

TAP	1	48	7
TAP	1	144	7
TAP	1	240	0
TAP	1	336	0
TAP	2	48	1
TAP	2	144	1
STR	2	192	1
SI_	2	192	1	96	48	4
TAP	3	48	5
TAP	3	144	5
TAP	3	240	2
TAP	3	336	2
HLD	4	0	4	192
TAP	4	192	3
BRK	4	288	1
BRK	4	288	6
TAP	5	0	4
TAP	5	96	0
TAP	5	96	1
TAP	5	192	3
TAP	5	288	6
TAP	5	288	7
TAP	6	0	3
TAP	6	0	4
TAP	6	96	1
TAP	6	144	0
TAP	6	192	1
TAP	6	288	2
TAP	6	288	7
TAP	7	0	3
TAP	7	96	6
TAP	7	96	7
TAP	7	192	4
TAP	7	288	0
TAP	7	288	1
TAP	8	0	3
TAP	8	0	4
TAP	8	96	6
TAP	8	144	7
TAP	8	192	6
TAP	8	288	0
TAP	8	288	5
TAP	9	0	4
TAP	9	96	0
TAP	9	96	2
TAP	9	192	3
TAP	9	288	5
TAP	9	288	7
TAP	10	0	3
TAP	10	0	4
TAP	10	96	1
TAP	10	144	0
TAP	10	192	1
TAP	10	288	2
TAP	10	288	7
TAP	11	0	3
TAP	11	96	5
TAP	11	96	7
TAP	11	192	4
TAP	11	288	0
TAP	11	288	2
BST	12	0	3
SCL	12	0	3	96	120	0
BST	12	0	4
SCR	12	0	4	96	120	7
HLD	13	0	1	192
HLD	13	192	2	192
HLD	14	0	3	192
HLD	14	192	4	192
HLD	15	0	5	192
HLD	15	192	6	192
STR	16	0	7
SXR	16	0	7	96	192	3
HLD	17	0	6	192
HLD	17	192	5	192
HLD	18	0	4	192
HLD	18	192	3	192
HLD	19	0	2	192
HLD	19	192	1	192
STR	20	0	0
SXL	20	0	0	96	192	4
TAP	21	0	0
TAP	21	96	1
TAP	21	96	7
TAP	21	192	2
TAP	21	192	6
TAP	21	288	3
TAP	21	288	5
TAP	22	0	4
TAP	22	96	3
TAP	22	96	5
TAP	22	192	2
TAP	22	192	6
TAP	22	288	1
TAP	22	288	7
TAP	23	0	0
TAP	23	96	1
TAP	23	96	7
TAP	23	192	2
TAP	23	192	6
TAP	23	288	3
TAP	23	288	5
STR	24	0	4
SCR	24	0	4	96	120	1
SUR	24	0	4	96	120	1
TAP	25	0	7
TAP	25	96	0
TAP	25	96	6
TAP	25	192	1
TAP	25	192	5
TAP	25	288	2
TAP	25	288	4
TAP	26	0	3
TAP	26	96	2
TAP	26	96	4
TAP	26	192	1
TAP	26	192	5
TAP	26	288	0
TAP	26	288	6
TAP	27	0	7
TAP	27	96	0
TAP	27	96	6
TAP	27	192	1
TAP	27	192	5
TAP	27	288	2
TAP	27	288	4
STR	28	0	3
SCL	28	0	3	96	120	6
SUL	28	0	3	96	120	6
TAP	29	288	3
TAP	29	336	4
TAP	30	0	3
TAP	30	96	1
TAP	30	96	7
TAP	30	192	6
TAP	30	240	7
TAP	30	288	6
TAP	31	0	4
TAP	31	0	5
TAP	31	96	2
TAP	31	144	3
HLD	31	192	2	96
BRK	31	288	0
TAP	32	0	6
TAP	32	0	7
TAP	32	96	3
TAP	32	96	4
TAP	32	192	0
TAP	32	192	1
TAP	32	288	3
TAP	32	288	4
TAP	33	0	6
TAP	33	0	7
TAP	33	96	7
TAP	33	144	6
STR	33	192	7
SI_	33	192	7	96	48	3
TAP	34	0	4
TAP	34	96	0
TAP	34	96	6
TAP	34	192	1
TAP	34	240	0
TAP	34	288	1
TAP	35	0	2
TAP	35	0	3
TAP	35	96	5
TAP	35	144	4
HLD	35	192	5	96
BRK	35	288	7
TAP	36	0	0
TAP	36	0	1
TAP	36	96	3
TAP	36	96	4
TAP	36	192	6
TAP	36	192	7
TAP	36	288	3
TAP	36	288	4
TAP	37	0	0
TAP	37	0	1
TAP	37	96	0
TAP	37	144	1
STR	37	192	0
SI_	37	192	0	96	48	4
TAP	38	0	1
TAP	38	48	1
HLD	38	96	1	96
STR	38	192	7
SI_	38	192	7	96	48	3
TAP	39	0	0
TAP	39	48	0
HLD	39	96	0	96
STR	39	192	6
SI_	39	192	6	96	48	2
TAP	40	0	1
TAP	40	48	1
HLD	40	96	1	96
STR	40	192	7
SI_	40	192	7	96	48	3
TAP	41	0	0
TAP	41	48	7
TAP	41	96	1
TAP	41	144	6
TAP	41	192	2
TAP	41	240	5
TAP	41	288	3
TAP	42	0	6
TAP	42	48	6
HLD	42	96	6	96
STR	42	192	0
SI_	42	192	0	96	48	4
TAP	43	0	7
TAP	43	48	7
HLD	43	96	7	96
STR	43	192	1
SI_	43	192	1	96	48	5
TAP	44	0	6
TAP	44	48	6
HLD	44	96	6	96
STR	44	192	0
SI_	44	192	0	96	48	4
HLD	45	0	7	96
TAP	45	96	0
TAP	45	192	1
TAP	45	192	6
TAP	45	240	1
TAP	45	240	6
BRK	45	288	1
BRK	45	288	6
TAP	46	0	2
STR	46	0	4
SI_	46	0	4	96	48	7
STR	46	192	0
SI_	46	192	0	96	48	3
TAP	46	192	6
TAP	47	0	2
STR	47	0	4
SI_	47	0	4	96	48	7
TAP	47	192	0
TAP	47	240	0
BRK	47	288	0
STR	48	0	3
SI_	48	0	3	96	48	0
TAP	48	0	5
TAP	48	192	1
STR	48	192	7
SI_	48	192	7	96	48	4
STR	49	0	3
SI_	49	0	3	96	48	0
TAP	49	0	5
TAP	49	192	7
TAP	49	240	7
BRK	49	288	7
TAP	50	0	3
STR	50	0	5
SI_	50	0	5	96	48	0
STR	50	192	1
SI_	50	192	1	96	48	4
TAP	50	192	7
TAP	51	0	3
STR	51	0	5
SI_	51	0	5	96	48	0
TAP	51	192	1
TAP	51	240	1
BRK	51	288	1
STR	52	0	2
SI_	52	0	2	96	48	7
TAP	52	0	4
TAP	52	192	0
STR	52	192	6
SI_	52	192	6	96	48	3
BST	53	0	2
SXL	53	0	2	96	192	7
BRK	53	0	4
STR	54	0	6
SI_	54	0	6	96	192	2
TAP	54	96	1
TAP	54	288	0
STR	55	0	1
SI_	55	0	1	96	192	5
TAP	55	96	6
TAP	55	288	7
STR	56	0	7
SI_	56	0	7	96	192	3
TAP	56	96	2
TAP	56	288	0
STR	57	0	0
SI_	57	0	0	96	192	4
TAP	57	96	5
TAP	57	288	7
HLD	58	0	5	96
TAP	58	96	7
TAP	58	144	7
TAP	58	240	0
TAP	58	240	1
TAP	58	288	0
TAP	58	288	1
HLD	59	0	2	96
TAP	59	96	0
TAP	59	144	0
TAP	59	240	6
TAP	59	240	7
TAP	59	288	6
TAP	59	288	7
HLD	60	0	4	96
TAP	60	96	7
TAP	60	144	7
TAP	60	240	0
TAP	60	240	2
TAP	60	288	0
TAP	60	288	2
HLD	61	0	3	96
TAP	61	96	0
TAP	61	144	0
TAP	61	240	5
TAP	61	240	7
TAP	61	288	5
TAP	61	288	7
STR	62	0	6
SXL	62	0	6	96	192	3
STR	63	0	1
SXR	63	0	1	96	192	4
STR	64	0	5
SXR	64	0	5	96	192	0
STR	65	0	2
SXL	65	0	2	96	192	7
STR	66	0	6
SXR	66	0	6	96	192	3
STR	67	0	1
SXL	67	0	1	96	192	4
STR	68	0	7
SI_	68	0	7	96	48	3
STR	68	192	0
SI_	68	192	0	96	48	4
STR	69	0	6
SI_	69	0	6	96	48	3
STR	69	192	1
SI_	69	192	1	96	48	4
BST	70	0	7
SF_	70	0	7	96	288	3
TAP	71	288	4
TAP	71	336	3
TAP	72	0	4
TAP	72	96	0
TAP	72	96	6
TAP	72	192	1
TAP	72	240	0
TAP	72	288	1
TAP	73	0	4
TAP	73	0	5
TAP	73	96	2
TAP	73	144	3
HLD	73	192	2	96
BRK	73	288	0
TAP	74	0	6
TAP	74	0	7
TAP	74	96	1
TAP	74	144	0
TAP	74	192	1
TAP	74	288	6
TAP	74	336	7
TAP	75	0	5
TAP	75	48	0
TAP	75	96	4
TAP	75	144	1
STR	75	192	3
SI_	75	192	3	96	48	7
TAP	76	0	3
TAP	76	96	1
TAP	76	96	7
TAP	76	192	6
TAP	76	240	7
TAP	76	288	6
TAP	77	0	2
TAP	77	0	3
TAP	77	96	5
TAP	77	144	4
HLD	77	192	5	96
BRK	77	288	7
TAP	78	0	0
TAP	78	0	1
TAP	78	96	6
TAP	78	144	7
TAP	78	192	6
TAP	78	288	1
TAP	78	336	0
TAP	79	0	2
TAP	79	48	7
TAP	79	96	3
TAP	79	144	6
STR	79	192	4
SI_	79	192	4	96	48	0
TAP	80	0	6
TAP	80	48	0
TAP	80	96	7
TAP	80	144	1
HLD	80	192	0	96
TAP	80	288	2
TAP	81	0	1
TAP	81	48	7
TAP	81	96	0
TAP	81	144	6
HLD	81	192	7	96
TAP	81	288	5
TAP	82	0	6
TAP	82	48	0
TAP	82	96	7
TAP	82	144	1
HLD	82	192	0	96
TAP	82	288	2
TAP	83	0	5
TAP	83	0	7
TAP	83	96	0
TAP	83	96	2
TAP	83	192	4
TAP	83	192	6
TAP	83	288	1
TAP	83	288	3
TAP	84	0	5
TAP	84	48	3
TAP	84	96	4
TAP	84	144	2
HLD	84	192	3	96
TAP	84	288	0
TAP	85	0	2
TAP	85	48	4
TAP	85	96	3
TAP	85	144	5
HLD	85	192	4	96
TAP	85	288	7
TAP	86	0	5
TAP	86	48	3
TAP	86	96	4
TAP	86	144	2
HLD	86	192	3	96
TAP	86	288	0
HLD	87	0	0	96
HLD	87	0	4	96
TAP	87	192	0
TAP	87	192	4
TAP	87	240	0
TAP	87	240	4
BRK	87	288	0
BRK	87	288	4
HLD	88	0	5	96
TAP	88	96	7
TAP	88	144	7
TAP	88	240	0
TAP	88	288	1
TAP	88	288	7
HLD	89	0	2	96
TAP	89	96	0
TAP	89	144	0
TAP	89	240	7
TAP	89	288	0
TAP	89	288	6
HLD	90	0	4	96
TAP	90	96	7
TAP	90	144	7
TAP	90	240	1
TAP	90	288	0
TAP	90	288	2
HLD	91	0	3	96
TAP	91	96	0
TAP	91	144	0
TAP	91	240	6
TAP	91	288	5
TAP	91	288	7
HLD	92	0	5	96
TAP	92	96	7
TAP	92	144	7
TAP	92	240	0
TAP	92	240	1
TAP	92	288	2
TAP	92	288	7
HLD	93	0	2	96
TAP	93	96	0
TAP	93	144	0
TAP	93	240	6
TAP	93	240	7
TAP	93	288	0
TAP	93	288	5
HLD	94	0	4	96
TAP	94	96	7
TAP	94	144	7
TAP	94	240	0
TAP	94	240	1
TAP	94	288	2
TAP	94	288	7
HLD	95	0	3	96
STR	95	96	0
SXL	95	96	0	96	144	5
TAP	96	48	0
TAP	96	48	2
TAP	96	144	5
TAP	96	144	7
HLD	96	240	0	48
HLD	96	240	2	48
TAP	97	48	3
TAP	97	48	5
TAP	97	144	1
TAP	97	144	7
STR	97	192	1
SI_	97	192	1	96	48	4
STR	97	192	7
SI_	97	192	7	96	48	4
TAP	98	48	1
TAP	98	48	3
TAP	98	144	4
TAP	98	144	6
HLD	98	240	1	48
HLD	98	240	3	48
TAP	99	48	2
TAP	99	48	4
TAP	99	144	0
TAP	99	144	6
STR	99	192	0
SI_	99	192	0	96	48	3
STR	99	192	6
SI_	99	192	6	96	48	3
TAP	100	48	5
TAP	100	48	7
TAP	100	144	0
TAP	100	144	2
HLD	100	240	5	48
HLD	100	240	7	48
TAP	101	48	2
TAP	101	48	4
TAP	101	144	0
TAP	101	144	6
STR	101	192	0
SI_	101	192	0	96	48	3
STR	101	192	6
SI_	101	192	6	96	48	3
TAP	102	48	6
TAP	102	48	7
TAP	102	144	2
TAP	102	144	3
TAP	102	240	0
TAP	102	240	1
TAP	102	336	4
TAP	102	336	5
BST	103	0	4
SUR	103	0	4	96	168	3
BST	103	0	5
SCR	103	0	5	96	168	2

T_REC_TAP	373
T_REC_BRK	14
T_REC_XTP	0
T_REC_HLD	50
T_REC_XHO	0
T_REC_STR	47
T_REC_BST	6
T_REC_XST	0
T_REC_TTP	0
T_REC_THO	0
T_REC_SLD	55
T_REC_ALL	545
T_NUM_TAP	420
T_NUM_BRK	20
T_NUM_HLD	50
T_NUM_SLD	55
T_NUM_ALL	545
T_JUDGE_TAP	440
T_JUDGE_HLD	120
T_JUDGE_SLD	55
T_JUDGE_ALL	615
TTM_EACHPAIRS	118
TTM_SCR_TAP	210000
TTM_SCR_BRK	52000
TTM_SCR_HLD	50000
TTM_SCR_SLD	82500
TTM_SCR_ALL	394500
TTM_SCR_S	380750
TTM_SCR_SS	392500
TTM_RAT_ACV	10050

